Доктор Стрэндж

Лицензия

Добыча

Дубляж

Уэнсдэй

1 сезон

Тор

Дубляж

В эфире

Дубляж

Там, где раки поют

MVO

Властелин колец

1 сезон

Deluxe

pack

Рекомендуем

30

Пиратка

ВАЖНО

ВАЖНО

Ghostwire

Пиратка

jed

RePack

nioh2

RePack

RDR2

RePack

NEED FOR SPEED™ PAYBACK

RePack

скачать торрент

Кинопоиск HD

Острые козырьки 6 сезон

6 сезон

FAR CRY 6

RePack

скачать торрент

Лицензия

скачать торрент

MVO

1

1 сезон

скачать торрент

1 сезон

скачать торрент

Лицензия

  

Дитя тьмы: Первая жертва / Orphan: First Kill (Уильям Брент Белл) [2022, Ужасы, триллер, драма, криминал, детектив, WEB-DL 720p] Дубляж [СиПиАй Филмз / CPI Films]

Дитя тьмы: Первая жертва через торрент pb.wtf

Раздают: 1 [ 0 KB/s ]
Размер: 2.37 GB | Добавлен: 2 мес. 26 д. назад | Торрент скачан:82 раза
Смотреть онлайн | Скачать   

07-09-2022 18:16 Дитя тьмы: Первая жертва Скачать торрент  

Дитя тьмы: Первая жертва
Orphan: First Kill

Год выпуска: 2022
Страна: США
Выпущено: Dark Castle Entertainment, Eagle Vision, Entertainment One
Жанр: Ужасы, триллер, драма, криминал, детектив
Продолжительность: 01:38:40
Перевод: Дублированный | СиПиАй Филмз / CPI Films
Субтитры: Aнглийские

Режиссер: Уильям Брент Белл

rating

В ролях: Изабель Фурман, Джулия Стайлз, Россиф Сазерленд, Хиро Канагава, Мэттью Финлан, Саманта Уолкс, Дэвид Браун, Лорен Кокрейн, Гвендолин Коллинс, Кристен Савацки

Описание: Сбежав из психиатрической больницы, Лина направляется в Америку, выдавая себя за Эстер, пропавшую дочь богатой семьи. В качестве Эстер она сталкивается с неожиданным препятствием - приемная мама намерена бороться за жизнь своей семьи и победить во что бы то ни стало.

Качество: WEB-DL 720p
Формат: MKV

Видео: MPEG-4 AVC, 1280x688 at 24.000 fps, [email protected], ~2412 kbps
Аудио 1: AC3, 6 ch, ~384 kbps - | Русский |
Аудио 2: E-AC3, 6 ch, ~640 kbps - | Английский |
скриншот  скриншот  скриншот  скриншот  

General
Unique ID : 271932226207962578976371831499266323642 (0xCC943DE200BAF8DDB82889D13A91F4BA)
Complete name : L:Orphan-First Kill.2022.WEB-DLRip.720p.x264.seleZen.mkv
Format : Matroska
Format version : Version 4
File size : 2.37 GiB
Duration : 1 h 38 min
Overall bit rate : 3 439 kb/s
Movie name : Orphan-First Kill.2022.WEB-DLRip.720p.x264.seleZen
Encoded date : UTC 2022-09-07 07:55:48
Writing application : mkvmerge v70.0.0 ('Caught A Lite Sneeze') 64-bit
Writing library : libebml v1.4.2 + libmatroska v1.6.4
Cover : Yes
Attachments : cover.jpg / small_cover.jpg

Video
ID : 1
Format : AVC
Format/Info : Advanced Video Codec
Format profile : [email protected]
Format settings : CABAC / 4 Ref Frames
Format settings, CABAC : Yes
Format settings, Reference : 4 frames
Codec ID : V_MPEG4/ISO/AVC
Duration : 1 h 38 min
Bit rate mode : Constant
Bit rate : 2 412 kb/s
Nominal bit rate : 4 000 kb/s
Width : 1 280 pixels
Height : 688 pixels
Display aspect ratio : 1.85:1
Frame rate mode : Constant
Frame rate : 24.000 FPS
Color space : YUV
Chroma subsampling : 4:2:0
Bit depth : 8 bits
Scan type : Progressive
Bits/(Pixel*Frame) : 0.114
Stream size : 1.66 GiB (70%)
Language : English
Default : Yes
Forced : No
Color range : Limited
Color primaries : BT.709
Transfer characteristics : BT.709
Matrix coefficients : BT.709

Audio #1
ID : 2
Format : AC-3
Format/Info : Audio Coding 3
Commercial name : Dolby Digital
Codec ID : A_AC3
Duration : 1 h 38 min
Bit rate mode : Constant
Bit rate : 384 kb/s
Channel(s) : 6 channels
Channel layout : L R C LFE Ls Rs
Sampling rate : 48.0 kHz
Frame rate : 31.250 FPS (1536 SPF)
Compression mode : Lossy
Stream size : 271 MiB (11%)
Title : Дубляж
Language : Russian
Service kind : Complete Main
Default : Yes
Forced : Yes

Audio #2
ID : 3
Format : E-AC-3
Format/Info : Enhanced AC-3
Commercial name : Dolby Digital Plus
Codec ID : A_EAC3
Duration : 1 h 38 min
Bit rate mode : Constant
Bit rate : 640 kb/s
Channel(s) : 6 channels
Channel layout : L R C LFE Ls Rs
Sampling rate : 48.0 kHz
Frame rate : 31.250 FPS (1536 SPF)
Compression mode : Lossy
Stream size : 452 MiB (19%)
Title : Original
Language : English
Service kind : Complete Main
Default : No
Forced : No

Text
ID : 4
Format : UTF-8
Codec ID : S_TEXT/UTF8
Codec ID/Info : UTF-8 Plain Text
Duration : 1 h 33 min
Bit rate : 52 b/s
Count of elements : 1208
Stream size : 36.0 KiB (0%)
Title : English (SDH)
Language : English
Default : No
Forced : No

Menu
00:00:00.000 : en:Глава 01
00:07:30.000 : en:Глава 02
00:15:00.000 : en:Глава 03
00:22:30.000 : en:Глава 04
00:30:00.000 : en:Глава 05
00:37:30.000 : en:Глава 06
00:45:00.000 : en:Глава 07
00:52:30.000 : en:Глава 08
01:00:00.000 : en:Глава 09
01:07:30.000 : en:Глава 10
01:15:00.000 : en:Глава 11
01:22:30.000 : en:Глава 12
01:30:00.000 : en:Глава 13
01:37:30.000 : en:Глава 14




Скачать Дитя тьмы: Первая жертва через торрент https://i120.fastpic.org/big/2022/0907/97/86dccac1bf8b9cecdc216a9806227a97.jpg Скачать, смотреть онлайн Дитя тьмы: Первая жертва бесплантно в хорошем качестве Описание: Сбежав из психиатрической больницы, Лина направляется в Америку, выдавая себя за Эстер, пропавшую дочь богатой семьи. В качестве ... 10 10 3
Торрент: Зарегистрирован [2022-09-07 18:16] · скачан: 82 раз
Статус: √ проверено
Размер: 2.37 GB
Как cкачать? Как скачать Дитя тьмы: Первая жертва через торрент | UTorrent

% Раздел Тема Автор DL S | L
Фильмы 2022 [DVDrip, WEB-DLRip, HDrip] (DUB, MVO) [ 1.45 GB ] Дитя тьмы: Первая жертва / Orphan: First Kill | DUB | DLRip-AVC bober100 Скачать
1 | 0
Фильмы 2022 [DVDrip, WEB-DLRip, HDrip] (DUB, MVO) [ 1.46 GB ] Дитя тьмы: Первая жертва / Orphan: First Kill | DUB | DLRip bober100 Скачать
3 | 0
Фильмы [HD 720p, 1080p] (Хороший звук DUB, MVO) [ 11.77 GB ] Дитя тьмы: Первая жертва / Orphan: First Kill | DUB | 1080p bober100 Скачать
2 | 0
T Фильмы 2022 (Звук TS, Cam, VO, DVO) [ 1.95 GB ] Дитя тьмы: Первая жертва / Orphan: First Kill | Pazl Voice | WEBRip-AVC Lithuania Скачать
2 | 0

28-11-2019 20:33  


Отключить вcю реклaмy на сайте, в т.ч. и в плеере онлайн просмотра!

    Дорогой пользователь! Огромная просьба, поблагодарите релизера, оцените раздачу и оставьте свои комментарий, если Вы скачали Дитя тьмы: Первая жертва через торрент бесплатно!!
    Комментировать посты могут только пользователи прошедшие не сложную регистрацию
    Показать сообщения:    


    Дитя тьмы: Первая жертва через торрент
    Скачать бесплатно Дитя тьмы: Первая жертва
    Дитя тьмы: Первая жертва скачать торрент
    Дитя тьмы: Первая жертва смотреть онлайн
    Cкачать фильм Дитя тьмы: Первая жертва бесплатно
    Дитя тьмы: Первая жертва скачать торрент в хорошем качестве
    Дитя тьмы: Первая жертва смотреть онлайн бесплатно в хорошем качестве
    Вы не можете начинать темы
    Вы не можете отвечать на сообщения
    Вы не можете редактировать свои сообщения
    Вы не можете удалять свои сообщения
    Вы не можете голосовать в опросах
    Вы не можете прикреплять файлы к сообщениям
    Вы можете скачивать файлы
    Дитя тьмы: Первая жертва / Orphan: First Kill [2022, Ужасы, триллер, драма, криминал, детектив, WEB-DL 720p] Дубляж [СиПиАй Филмз / CPI Films] смотреть онлайн, скачать торрент picoco.icu