Доктор Стрэндж

Лицензия

Добыча

Дубляж

Уэнсдэй

1 сезон

Тор

Дубляж

В эфире

Дубляж

Там, где раки поют

MVO

Властелин колец

1 сезон

Deluxe

pack

Рекомендуем

30

Пиратка

ВАЖНО

ВАЖНО

Ghostwire

Пиратка

jed

RePack

nioh2

RePack

RDR2

RePack

NEED FOR SPEED™ PAYBACK

RePack

скачать торрент

Кинопоиск HD

Острые козырьки 6 сезон

6 сезон

FAR CRY 6

RePack

скачать торрент

Лицензия

скачать торрент

MVO

1

1 сезон

скачать торрент

1 сезон

скачать торрент

Лицензия

  

Тор: Любовь и гром / Thor: Love and Thunder (Тайка Вайтити) [2022, Фантастика, фэнтези, боевик, мелодрама, комедия, приключения, WEB-DL 1080p] [IMAX] 2xMVO [Jaskier, NewComers]

Тор: Любовь и гром через торрент pb.wtf

Раздают: 4 [ 0 KB/s ]
Размер: 6.53 GB | Добавлен: 2 мес. 22 д. назад | Торрент скачан:673 раза
Смотреть онлайн | Скачать   

11-09-2022 06:30 Тор: Любовь и гром Скачать торрент  

Тор: Любовь и гром
Thor: Love and Thunder

Год выпуска: 2022
Страна: США, Австралия
Выпущено: Fox Studios Australia, Marvel Studios Inc., Walt Disney Pictures
Жанр: Фантастика, фэнтези, боевик, мелодрама, комедия, приключения
Продолжительность: 01:58:43
Перевод:
#1: Профессиональный многоголосый | Jaskier
#2: Профессиональный многоголосый | NewComers
Субтитры: Русские (Full), английские

Режиссер: Тайка Вайтити

rating

В ролях: Крис Хемсворт, Натали Портман, Крис Прэтт, Тайка Вайтити, Сэм Нилл, Брэдли Купер, Мелисса Маккарти, Кристиан Бэйл, Карен Гиллан, Мэтт Дэймон

Описание: Не успев насладиться заслуженным отдыхом, Тор встречает нового врага в лице Горра Убийцы богов, жаждущего истребить все божества во вселенной. Чтобы противостоять ему, Тор объединяется с Валькирией, Коргом и своей бывшей девушкой Джейн Фостер, ставшей Могучим Тором. Вместе они должны остановить злодея, пока не стало слишком поздно.

Качество: WEB-DL 1080p | IMAX
Формат: MKV

Видео: MPEG-4 AVC, 1920x1080, 6272 Кbit/s, 23.976 fps
Аудио #01: 48 kHz, AC3, 5.1, 384 Kbps | Профессиональный многоголосый | Jaskier | RUS |
Аудио #02: 48 kHz, AC3, 5.1, 448 Kbps | Профессиональный многоголосый | NewComers | RUS |
Аудио #03: 48 kHz, E-AC3+Atmos, 5.1, 768 Kbps | Оригинал | ENG |
скриншот  скриншот  скриншот  скриншот  скриншот  скриншот  

General
Unique ID: 274444070695278432314041669454818632543 (0xCE780160A8D2D86F766B4255291AE35F)
Complete name: F:VideoThor.Love.and.Thunder.2022.IMAX.WEB-DL.1080p.seleZen.mkv
Format: Matroska
Format version: Version 4
File size: 6.53 GiB
Duration: 1 h 58 min
Overall bit rate mode: Variable
Overall bit rate: 7 874 kb/s
Movie name: Thor Love and Thunder 2022 from seleZen
Encoded date: UTC 2022-09-10 22:49:36
Writing application: mkvmerge v59.0.0 ('Shining Star') 64-bit
Writing library: libebml v1.4.2 + libmatroska v1.6.4

Video
ID: 1
Format: AVC
Format/Info: Advanced Video Codec
Format profile: [email protected]
Format settings: CABAC / 4 Ref Frames
Format settings, CABAC: Yes
Format settings, Reference: 4 frames
Codec ID: V_MPEG4/ISO/AVC
Duration: 1 h 58 min
Bit rate mode: Variable
Bit rate: 6 272 kb/s
Maximum bit rate: 12.7 Mb/s
Width: 1 920 pixels
Height: 1 080 pixels
Display aspect ratio: 16:9
Frame rate mode: Constant
Frame rate: 23.976 (24000/1001) FPS
Color space: YUV
Chroma subsampling: 4:2:0
Bit depth: 8 bits
Scan type: Progressive
Bits/(Pixel*Frame): 0.126
Stream size: 5.20 GiB (80%)
Language: English
Default: Yes
Forced: No
Color range: Limited
Color primaries: BT.709
Transfer characteristics: BT.709
Matrix coefficients: BT.709

Audio #1
ID: 2
Format: AC-3
Format/Info: Audio Coding 3
Commercial name: Dolby Digital
Codec ID: A_AC3
Duration: 1 h 58 min
Bit rate mode: Constant
Bit rate: 384 kb/s
Channel(s): 6 channels
Channel layout: L R C LFE Ls Rs
Sampling rate: 48.0 kHz
Frame rate: 31.250 FPS (1536 SPF)
Compression mode: Lossy
Stream size: 326 MiB (5%)
Title: MVO [Jaskier]
Language: Russian
Service kind: Complete Main
Default: Yes
Forced: Yes

Audio #2
ID: 3
Format: AC-3
Format/Info: Audio Coding 3
Commercial name: Dolby Digital
Codec ID: A_AC3
Duration: 1 h 58 min
Bit rate mode: Constant
Bit rate: 448 kb/s
Channel(s): 6 channels
Channel layout: L R C LFE Ls Rs
Sampling rate: 48.0 kHz
Frame rate: 31.250 FPS (1536 SPF)
Compression mode: Lossy
Stream size: 381 MiB (6%)
Title: MVO [NewComers]
Language: Russian
Service kind: Complete Main
Default: No
Forced: No

Audio #3
ID: 4
Format: E-AC-3 JOC
Format/Info: Enhanced AC-3 with Joint Object Coding
Commercial name: Dolby Digital Plus with Dolby Atmos
Codec ID: A_EAC3
Duration: 1 h 58 min
Bit rate mode: Constant
Bit rate: 768 kb/s
Channel(s): 6 channels
Channel layout: L R C LFE Ls Rs
Sampling rate: 48.0 kHz
Frame rate: 31.250 FPS (1536 SPF)
Compression mode: Lossy
Delay relative to video: 83 ms
Stream size: 652 MiB (10%)
Title: Original
Language: English
Service kind: Complete Main
Default: No
Forced: No
Complexity index: 16
Number of dynamic objects: 15
Bed channel count: 1 channel
Bed channel configuration: LFE

Text #1
ID: 5
Format: UTF-8
Codec ID: S_TEXT/UTF8
Codec ID/Info: UTF-8 Plain Text
Duration: 1 h 57 min
Bit rate: 94 b/s
Frame rate: 0.228 FPS
Count of elements: 1615
Stream size: 81.6 KiB (0%)
Title: Full [Cool Story Blog]
Language: Russian
Default: No
Forced: No

Text #2
ID: 6
Format: UTF-8
Codec ID: S_TEXT/UTF8
Codec ID/Info: UTF-8 Plain Text
Duration: 1 h 57 min
Bit rate: 56 b/s
Frame rate: 0.255 FPS
Count of elements: 1800
Stream size: 48.8 KiB (0%)
Title: Full
Language: English
Default: No
Forced: No

Text #3
ID: 7
Format: UTF-8
Codec ID: S_TEXT/UTF8
Codec ID/Info: UTF-8 Plain Text
Duration: 1 h 58 min
Bit rate: 70 b/s
Frame rate: 0.321 FPS
Count of elements: 2281
Stream size: 61.0 KiB (0%)
Title: SDH
Language: English
Default: No
Forced: No

Menu
00:00:00.000: Chapter 01
00:06:44.000: Chapter 02
00:10:10.000: Chapter 03
00:14:22.000: Chapter 04
00:18:12.000: Chapter 05
00:20:58.000: Chapter 06
00:21:46.000: Chapter 07
00:26:59.000: Chapter 08
00:28:14.000: Chapter 09
00:29:50.000: Chapter 10
00:31:22.000: Chapter 11
00:35:13.000: Chapter 12
00:38:38.000: Chapter 13
00:45:34.000: Chapter 14
00:53:01.000: Chapter 15
01:06:15.000: Chapter 16
01:14:12.000: Chapter 17
01:24:30.000: Chapter 18
01:28:25.000: Chapter 19
01:30:14.000: Chapter 20
01:34:12.000: Chapter 21
01:38:06.000: Chapter 22
01:44:39.000: Chapter 23
01:48:11.000: Chapter 24
01:49:56.000: Chapter 25
01:51:08.000: Chapter 26




Скачать Тор: Любовь и гром через торрент https://i120.fastpic.org/big/2022/0911/19/e0912aba4d9ed35c80ef78b1fd37b819.jpg Скачать, смотреть онлайн Тор: Любовь и гром бесплантно в хорошем качестве Описание: Не успев насладиться заслуженным отдыхом, Тор встречает нового врага в лице Горра Убийцы богов, жаждущего истребить все божества ... 9.8 10 13
Info! Золотая раздача, скачанное не засчитывается.
Торрент: Зарегистрирован [2022-09-11 06:30] · скачан: 673 раз
Статус: √ проверено
Размер: 6.53 GB
Как cкачать? Как скачать Тор: Любовь и гром через торрент | UTorrent

% Раздел Тема Автор DL S | L
Фильмы 2022 [DVDrip, WEB-DLRip, HDrip] (DUB, MVO) [ 1.46 GB ] Тор: Любовь и гром / Thor: Love and Thunder | Jaskier | DLRip bober100 Скачать
14 | 2
3D Фильмы [ 12.6 GB ] Тор: Любовь и гром в 3Д / Thor: Love and Thunder 3D | | 1080p serega768 Скачать
3 | 0
Фильмы (HD 720p, 1080p) (48-60 fps) [ 4.55 GB ] Тор: Любовь и гром / Thor: Love and Thunder | Дубляж | DLRip 720p / 60 FPS slaventi-69 Скачать
1 | 0
Фильмы [HD 720p, 1080p] (Хороший звук DUB, MVO) [ 7.06 GB ] Тор: Любовь и гром / Thor: Love and Thunder | Jaskier | 1080p bober100 Скачать
8 | 0
Фильмы [HD 720p, 1080p] (Хороший звук DUB, MVO) [ 10.85 GB ] Тор: Любовь и гром / Thor: Love and Thunder | Лицензия | 1080p bober100 Скачать
18 | 0
Фильмы 2022 [DVDrip, WEB-DLRip, HDrip] (DUB, MVO) [ 2.18 GB ] Тор: Любовь и гром / Thor: Love and Thunder | Jaskier | BDRip bober100 Скачать
7 | 0
Фильмы 2022 [DVDrip, WEB-DLRip, HDrip] (DUB, MVO) [ 1.46 GB ] Тор: Любовь и гром / Thor: Love and Thunder | Лицензия | BDRip bober100 Скачать
8 | 0

28-11-2019 20:33  


Отключить вcю реклaмy на сайте, в т.ч. и в плеере онлайн просмотра!

13-09-2022 13:11 Тор: Любовь и гром Скачать торрент  

Хрень полная. К тому же и пид..рская...
Насквозь пропитано...



    Дорогой пользователь! Огромная просьба, поблагодарите релизера, оцените раздачу и оставьте свои комментарий, если Вы скачали Тор: Любовь и гром через торрент бесплатно!!
    Комментировать посты могут только пользователи прошедшие не сложную регистрацию
    Показать сообщения:    


    Тор: Любовь и гром через торрент
    Скачать бесплатно Тор: Любовь и гром
    Тор: Любовь и гром скачать торрент
    Тор: Любовь и гром смотреть онлайн
    Cкачать фильм Тор: Любовь и гром бесплатно
    Тор: Любовь и гром скачать торрент в хорошем качестве
    Тор: Любовь и гром смотреть онлайн бесплатно в хорошем качестве
    Вы не можете начинать темы
    Вы не можете отвечать на сообщения
    Вы не можете редактировать свои сообщения
    Вы не можете удалять свои сообщения
    Вы не можете голосовать в опросах
    Вы не можете прикреплять файлы к сообщениям
    Вы можете скачивать файлы
    Тор: Любовь и гром / Thor: Love and Thunder [2022, Фантастика, фэнтези, боевик, мелодрама, комедия, приключения, WEB-DL 1080p] [IMAX] 2xMVO [Jaskier, NewComers] смотреть онлайн, скачать торрент picoco.icu