Доктор Стрэндж

Лицензия

Добыча

Дубляж

Дом дракона

1 сезон

Тор

Дубляж

В эфире

Дубляж

Там, где раки поют

MVO

Властелин колец

1 сезон

Deluxe

pack

Рекомендуем

30

Пиратка

ВАЖНО

ВАЖНО

Ghostwire

Пиратка

jed

RePack

nioh2

RePack

RDR2

RePack

NEED FOR SPEED™ PAYBACK

RePack

скачать торрент

Кинопоиск HD

Острые козырьки 6 сезон

6 сезон

FAR CRY 6

RePack

скачать торрент

Лицензия

скачать торрент

MVO

1

1 сезон

скачать торрент

1 сезон

скачать торрент

Лицензия

  

Последние выжившие / Last Survivors / SHTF (Дрю Милреа) [2021, Фантастика, триллер, WEB-DL 1080p] Дубляж [iTunes]

Последние выжившие через торрент pb.wtf

Раздают: 1 [ 0 KB/s ]
Размер: 5.17 GB | Добавлен: 7 мес. назад | Торрент скачан:155 раз
Смотреть онлайн | Скачать   

08-02-2022 08:30 Последние выжившие Скачать торрент  

Последние выжившие
Last Survivors
SHTF

Год выпуска: 2021
Страна: США
Выпущено: Yadav Productions, El Ride Productions, Fry Cook Productions
Жанр: Фантастика, триллер
Продолжительность: 01:38:33
Перевод: Дублированный | iTunes
Субтитры: Aнглийские

Режиссер: Дрю Милреа

rating

В ролях: Дрю Ван Акер, Алисия Сильверстоун, Стивен Мойер, Марк Фамильетти, Бенджамин Артур, Акааш Ядав, Саймон Лиз

Описание: Джейк и Трой двадцать лет живут оторванными от всего мира и не общаются ни с кем кроме отца и друг друга. Отец вселил в них страх ко всем прочим людям. Но когда Трой получил ранение, Джейк был вынужден отправиться к другим людям за лекарством. По дороге он познакомился с пожилой Генриеттой, которая живёт одна в глуши. Джейку она понравилась, и он начал подозревать, что отец действовал не в его интересах, вселяя страх ко всем вокруг.

Качество: WEB-DL 1080p
Формат: MKV

Видео: MPEG-4 AVC, 6734 Кb/s, 1908x668, 23.976 fps
Аудио #01: 48 kHz, AC3, 5.1, 384 Kbps | iTunes | RUS |
Аудио #02: 48 kHz, AC3, 5.1, 384 Kbps | Оригинал | ENG |
скриншот  скриншот  скриншот  скриншот  

Complete name : Poslednie.vyizhivshie.2021.WEB-DL.1080p.ELEKTRI4KA.UNIONGANG.mkv
Format : Matroska
Format version : Version 4
File size : 5.17 GiB
Duration : 1 h 38 min
Overall bit rate : 7 504 kb/s
Movie name : Poslednie.vyizhivshie.2021.WEB-DL.1080p.ELEKTRI4KA.UNIONGANG.
Encoded date : UTC 2022-04-12 10:25:43
Writing application : mkvmerge v8.3.0 ('Over the Horizon') 32bit
Writing library : libebml v1.3.1 + libmatroska v1.4.2

Video
ID : 1
Format : AVC
Format/Info : Advanced Video Codec
Format profile : [email protected]
Format settings : CABAC / 4 Ref Frames
Format settings, CABAC : Yes
Format settings, Reference frames : 4 frames
Codec ID : V_MPEG4/ISO/AVC
Duration : 1 h 38 min
Bit rate : 6 734 kb/s
Width : 1 908 pixels
Height : 668 pixels
Display aspect ratio : 2.856
Frame rate mode : Constant
Frame rate : 23.976 (24000/1001) FPS
Color space : YUV
Chroma subsampling : 4:2:0
Bit depth : 8 bits
Scan type : Progressive
Bits/(Pixel*Frame) : 0.220
Stream size : 4.64 GiB (90%)
Language : English
Default : Yes
Forced : No
Color range : Limited
Color primaries : BT.709
Transfer characteristics : BT.709
Matrix coefficients : BT.709

Audio #1
ID : 2
Format : AC-3
Format/Info : Audio Coding 3
Commercial name : Dolby Digital
Codec ID : A_AC3
Duration : 1 h 38 min
Bit rate mode : Constant
Bit rate : 384 kb/s
Channel(s) : 6 channels
Channel layout : L R C LFE Ls Rs
Sampling rate : 48.0 kHz
Frame rate : 31.250 FPS (1536 SPF)
Compression mode : Lossy
Stream size : 271 MiB (5%)
Title : Дубляж (iTunes)
Language : Russian
Service kind : Complete Main
Default : Yes
Forced : Yes

Audio #2
ID : 3
Format : AC-3
Format/Info : Audio Coding 3
Commercial name : Dolby Digital
Codec ID : A_AC3
Duration : 1 h 38 min
Bit rate mode : Constant
Bit rate : 384 kb/s
Channel(s) : 6 channels
Channel layout : L R C LFE Ls Rs
Sampling rate : 48.0 kHz
Frame rate : 31.250 FPS (1536 SPF)
Compression mode : Lossy
Stream size : 271 MiB (5%)
Language : English
Service kind : Complete Main
Default : No
Forced : No

Text
ID : 4
Format : UTF-8
Codec ID : S_TEXT/UTF8
Codec ID/Info : UTF-8 Plain Text
Duration : 1 h 32 min
Bit rate : 41 b/s
Count of elements : 968
Stream size : 28.3 KiB (0%)
Language : English
Default : No
Forced : No




Скачать Последние выжившие через торрент https://i117.fastpic.org/big/2022/0412/22/18f9bffa99061cc1531b74cb7282bb22.jpg Скачать, смотреть онлайн Последние выжившие бесплантно в хорошем качестве Описание: Джейк и Трой двадцать лет живут оторванными от всего мира и не общаются ни с кем кроме отца и друг друга. Отец вселил в них страх ... 8.9 10 11
Торрент: Зарегистрирован [2022-04-12 15:26] · скачан: 155 раз
Статус: √ проверено
Размер: 5.17 GB
Как cкачать? Как скачать Последние выжившие через торрент | UTorrent

% Раздел Тема Автор DL S | L
Фильмы [HD 720p, 1080p] (Хороший звук DUB, MVO) [ 7.61 GB ] Последние выжившие / Last Survivors / SHTF | iTunes | 1080p bober100 Скачать
4 | 0
Фильмы 2021 [DVDrip, WEB-DLRip, HDrip] (DUB, MVO) [ 746 MB ] Последние выжившие / Last Survivors / SHTF | iTunes | BDRip bober100 Скачать
4 | 0
Фильмы 2021 [DVDrip, WEB-DLRip, HDrip] (DUB, MVO) [ 1.46 GB ] Последние выжившие / Last Survivors / SHTF | iTunes | BDRip bober100 Скачать
9 | 0
T Фильмы 2021 (Звук TS, Cam, VO, DVO) [ 1.95 GB ] Последние выжившие / Last Survivors | Pazl Voice | WEBRip-AVC Lithuania Скачать
1 | 0

28-11-2019 20:33  


Отключить вcю реклaмy на сайте, в т.ч. и в плеере онлайн просмотра!

12-04-2022 19:03 Последние выжившие Скачать торрент  

И где в этом дерьме фантастика??? Если выкладываетет хню и хотите чтобы её посмотрели, ну хоть не брешите. Напишите просто триллер, это тоже будет брехня, но не такая явная.



22-04-2022 17:21 Последние выжившие Скачать торрент  

Gutto писал(а):

И где в этом дерьме фантастика??? Если выкладываетет хню и хотите чтобы её посмотрели, ну хоть не брешите. Напишите просто триллер, это тоже будет брехня, но не такая явная.

спасибо за описание, даже качать ни стал + к карме



21-09-2022 19:44 Последние выжившие Скачать торрент  

описание огонь! качать не буду!



    Дорогой пользователь! Огромная просьба, поблагодарите релизера, оцените раздачу и оставьте свои комментарий, если Вы скачали Последние выжившие через торрент бесплатно!!
    Комментировать посты могут только пользователи прошедшие не сложную регистрацию
    Показать сообщения:    


    Последние выжившие через торрент
    Скачать бесплатно Последние выжившие
    Последние выжившие скачать торрент
    Последние выжившие смотреть онлайн
    Cкачать фильм Последние выжившие бесплатно
    Последние выжившие скачать торрент в хорошем качестве
    Последние выжившие смотреть онлайн бесплатно в хорошем качестве
    Вы не можете начинать темы
    Вы не можете отвечать на сообщения
    Вы не можете редактировать свои сообщения
    Вы не можете удалять свои сообщения
    Вы не можете голосовать в опросах
    Вы не можете прикреплять файлы к сообщениям
    Вы можете скачивать файлы
    Последние выжившие / Last Survivors / SHTF [2021, Фантастика, триллер, WEB-DL 1080p] Дубляж [iTunes] смотреть онлайн, скачать торрент picoco.icu