Доктор Стрэндж

Лицензия

Добыча

Дубляж

Уэнсдэй

1 сезон

Тор

Дубляж

В эфире

Дубляж

Там, где раки поют

MVO

Властелин колец

1 сезон

Deluxe

pack

Рекомендуем

30

Пиратка

ВАЖНО

ВАЖНО

Ghostwire

Пиратка

jed

RePack

nioh2

RePack

RDR2

RePack

NEED FOR SPEED™ PAYBACK

RePack

скачать торрент

Кинопоиск HD

Острые козырьки 6 сезон

6 сезон

FAR CRY 6

RePack

скачать торрент

Лицензия

скачать торрент

MVO

1

1 сезон

скачать торрент

1 сезон

скачать торрент

Лицензия

  

Вышка / Fall (Скотт Манн) [2022, Триллер, WEB-DL 1080p] Дубляж [iTunes] +MVO [Jaskier]

Вышка через торрент pb.wtf

Раздают: 30 [ 615 KB/s ] Качают: 1 [ 0 KB/s ]
Размер: 5.57 GB | Добавлен: 2 мес. 7 д. назад | Торрент скачан:542 раза
Смотреть онлайн | Скачать   

05-09-2022 01:31 Вышка Скачать торрент  

Вышка
Fall

Год выпуска: 2022
Страна: Великобритания, США
Студия: Capstone Studios, Tea Shop & Film Company
Жанр: Триллер
Продолжительность: 01:42:24
Перевод(ы):
#1: Дублированный | iTunes
#2: Профессиональный (многоголосый) | Jaskier
Субтитры: Aнглийские

Режиссер: Скотт Манн

rating

В ролях: Грэйс Фултон, Вирджиния Гарднер, Джеффри Дин Морган, Мэйсон Гудинг, Джулия Пэйс Митчелл, Джаспер Коул

Описание: Бекки всегда любила экстрим, но после гибели мужа во время скалолазания она завязала с опасным увлечением. Когда ее подруга Хантер предлагает Бекки покорить вместе с ней радиомачту, героиня решает в последний раз взглянуть страху в лицо. Но на 600-метровой высоте что-то идет не так…

Качество: WEB-DL 1080p
Формат: MKV

Видео: MPEG-4 AVC, 1916x992, 6633 Кbit/s, 25.000 fps
Аудио #01: 48 kHz, AC3, 5.1, 384 Kbps | Дублированный | iTunes | RUS |
Аудио #02: 48 kHz, AC3, 5.1, 384 Kbps | Профессиональный многоголосый | Jaskier | RUS |
Аудио #03: 48 kHz, AC3, 5.1, 384 Kbps | Оригинал | ENG |
скриншот  скриншот  скриншот  скриншот  скриншот  скриншот  

General
Unique ID : 94262297067136533524324182347772886978 (0x46EA420FE1A9763CAC1A85E255447FC2)
Complete name : E:\Video1\Fall.2022.1080p.D.MVO.WEB-DL.1080p.seleZen.mkv
Format : Matroska
Format version : Version 4
File size : 5.57 GiB
Duration : 1 h 42 min
Overall bit rate : 7 788 kb/s
Movie name : Fall 2022 from seleZen
Encoded date : UTC 2022-09-26 18:53:38
Writing application : mkvmerge v59.0.0 ('Shining Star') 64-bit
Writing library : libebml v1.4.2 + libmatroska v1.6.4

Video
ID : 1
Format : AVC
Format/Info : Advanced Video Codec
Format profile : [email protected]
Format settings : CABAC / 4 Ref Frames
Format settings, CABAC : Yes
Format settings, Reference : 4 frames
Codec ID : V_MPEG4/ISO/AVC
Duration : 1 h 42 min
Bit rate : 6 633 kb/s
Width : 1 916 pixels
Height : 992 pixels
Display aspect ratio : 1.931
Frame rate mode : Constant
Frame rate : 25.000 FPS
Color space : YUV
Chroma subsampling : 4:2:0
Bit depth : 8 bits
Scan type : Progressive
Bits/(Pixel*Frame) : 0.140
Stream size : 4.75 GiB (85%)
Language : English
Default : Yes
Forced : No
Color range : Limited
Color primaries : BT.709
Transfer characteristics : BT.709
Matrix coefficients : BT.709

Audio #1
ID : 2
Format : AC-3
Format/Info : Audio Coding 3
Commercial name : Dolby Digital
Codec ID : A_AC3
Duration : 1 h 42 min
Bit rate mode : Constant
Bit rate : 384 kb/s
Channel(s) : 6 channels
Channel layout : L R C LFE Ls Rs
Sampling rate : 48.0 kHz
Frame rate : 31.250 FPS (1536 SPF)
Compression mode : Lossy
Stream size : 281 MiB (5%)
Title : Дубляж [iTunes]
Language : Russian
Service kind : Complete Main
Default : Yes
Forced : Yes

Audio #2
ID : 3
Format : AC-3
Format/Info : Audio Coding 3
Commercial name : Dolby Digital
Codec ID : A_AC3
Duration : 1 h 42 min
Bit rate mode : Constant
Bit rate : 384 kb/s
Channel(s) : 6 channels
Channel layout : L R C LFE Ls Rs
Sampling rate : 48.0 kHz
Frame rate : 31.250 FPS (1536 SPF)
Compression mode : Lossy
Stream size : 281 MiB (5%)
Title : MVO [Jaskier]
Language : Russian
Service kind : Complete Main
Default : No
Forced : No

Audio #3
ID : 4
Format : AC-3
Format/Info : Audio Coding 3
Commercial name : Dolby Digital
Codec ID : A_AC3
Duration : 1 h 42 min
Bit rate mode : Constant
Bit rate : 384 kb/s
Channel(s) : 6 channels
Channel layout : L R C LFE Ls Rs
Sampling rate : 48.0 kHz
Frame rate : 31.250 FPS (1536 SPF)
Compression mode : Lossy
Stream size : 281 MiB (5%)
Title : Original
Language : English
Service kind : Complete Main
Default : No
Forced : No

Text
ID : 5
Format : UTF-8
Codec ID : S_TEXT/UTF8
Codec ID/Info : UTF-8 Plain Text
Duration : 1 h 36 min
Bit rate : 43 b/s
Frame rate : 0.196 FPS
Count of elements : 1140
Stream size : 31.0 KiB (0%)
Title : Full
Language : English
Default : No
Forced : No




Скачать Вышка через торрент https://i120.fastpic.org/big/2022/0905/b7/398b0c8a739df812a00373693b4421b7.jpg Скачать, смотреть онлайн Вышка бесплантно в хорошем качестве Описание: Бекки всегда любила экстрим, но после гибели мужа во время скалолазания она завязала с опасным увлечением. Когда ее подруга ... 10 10 38
Info! Золотая раздача, скачанное не засчитывается.
Торрент: Зарегистрирован [2022-09-26 19:05] · скачан: 542 раз
Статус: √ проверено
Размер: 5.57 GB
Как cкачать? Как скачать Вышка через торрент | UTorrent

% Раздел Тема Автор DL S | L
Фильмы 2022 [DVDrip, WEB-DLRip, HDrip] (DUB, MVO) [ 1.46 GB ] Вышка / Fall | iTunes | HDRip bober100 Скачать
25 | 1
Фильмы [HD 720p, 1080p] (Хороший звук DUB, MVO) [ 11.01 GB ] Вышка / Fall | iTunes | 1080p bober100 Скачать
11 | 3
Фильмы 2022 [DVDrip, WEB-DLRip, HDrip] (DUB, MVO) [ 745 MB ] Вышка / Fall | iTunes | HDRip bober100 Скачать
6 | 1
Фильмы 2022 [DVDrip, WEB-DLRip, HDrip] (DUB, MVO) [ 2.28 GB ] Вышка / Fall | iTunes | HDRip-AVC bober100 Скачать
10 | 0



Последний раз редактировалось: bober100 (2022-09-26 19:07), всего редактировалось 2 раз(а)

28-11-2019 20:33  


Отключить вcю реклaмy на сайте, в т.ч. и в плеере онлайн просмотра!

05-09-2022 17:38 Вышка Скачать торрент  

Классный фильм, держит от начала до конца, местами фантастика, но для этого фильмы и смотрим, советую !!!



06-09-2022 03:20 Вышка Скачать торрент  

Великолепный фильм!



06-09-2022 12:21 Вышка Скачать торрент  

У пиндосов всё так... вышка не покрашена от коррозии и разваливается, а всем пофиг .



09-09-2022 21:22 Вышка Скачать торрент  

Хороший фильм!!!



14-09-2022 11:32 Вышка Скачать торрент  

для людей с боязнью высоты этот фильм покажется самым страшным и ужасным... я ваыключил, не выдержал)



23-09-2022 16:51 Вышка Скачать торрент  

Отличный фильм. Не боюсь высоты, сам связист, но с момента, как полезли наверх, напряжение не спадало, плюс пару неожиданных поворотов к концу фильма. Ходил в кинотеатр, сейчас буду второй раз смотреть!



27-09-2022 20:58 Вышка Скачать торрент  

Норм фильмец.



01-10-2022 21:22 Вышка Скачать торрент  

На такой высоте вышка должна качаться из стороны в сторону метра на 2.а вообще классный фильм.смотрел, иногда прикрывая лицо ладонями)рекомендую)



02-10-2022 15:18 Вышка Скачать торрент  

Повёлся на восторженные отзывы. Страха высоты там нет. Фильмец ТАК СЕБЕ.В принципе так и думал. Но смотреть можно. На вкус и цвет..........



11-10-2022 05:47 Вышка Скачать торрент  

Хороший фильм, держит в напряжении. Очень советую посмотреть



    Дорогой пользователь! Огромная просьба, поблагодарите релизера, оцените раздачу и оставьте свои комментарий, если Вы скачали Вышка через торрент бесплатно!!
    Комментировать посты могут только пользователи прошедшие не сложную регистрацию
    Показать сообщения:    


    Вышка через торрент
    Скачать бесплатно Вышка
    Вышка скачать торрент
    Вышка смотреть онлайн
    Cкачать фильм Вышка бесплатно
    Вышка скачать торрент в хорошем качестве
    Вышка смотреть онлайн бесплатно в хорошем качестве
    Вы не можете начинать темы
    Вы не можете отвечать на сообщения
    Вы не можете редактировать свои сообщения
    Вы не можете удалять свои сообщения
    Вы не можете голосовать в опросах
    Вы не можете прикреплять файлы к сообщениям
    Вы можете скачивать файлы
    Вышка / Fall [2022, Триллер, WEB-DL 1080p] Дубляж [iTunes] +MVO [Jaskier] смотреть онлайн, скачать торрент picoco.icu