Доктор Стрэндж

Лицензия

Добыча

Дубляж

Дом дракона

1 сезон

Тор

Дубляж

В эфире

Дубляж

Там, где раки поют

MVO

Властелин колец

1 сезон

Deluxe

pack

Рекомендуем

30

Пиратка

ВАЖНО

ВАЖНО

Ghostwire

Пиратка

jed

RePack

nioh2

RePack

RDR2

RePack

NEED FOR SPEED™ PAYBACK

RePack

скачать торрент

Кинопоиск HD

Острые козырьки 6 сезон

6 сезон

FAR CRY 6

RePack

скачать торрент

Лицензия

скачать торрент

MVO

1

1 сезон

скачать торрент

1 сезон

скачать торрент

Лицензия

  

Вторжение / An Intrusion (Николас Холлэнд) [2021, Триллер, драма, криминал, WEB-DL 1080p] MVO [КиноПоиск HD]

Вторжение через торрент pb.wtf

Раздают: 1 [ 0 KB/s ]
Размер: 4.09 GB | Добавлен: 2 мес. 8 д. назад | Торрент скачан:46 раз
Смотреть онлайн | Скачать   

24-09-2022 10:56 Вторжение Скачать торрент  

Вторжение
An Intrusion

Год выпуска: 2021
Страна: США
Выпущено: SLK Media Group, Diamond Dead Media, Laugh Cry Productions
Жанр: Триллер, драма, криминал
Продолжительность: 01:35:05
Перевод: Профессиональный (многоголосый) | КиноПоиск HD
Субтитры: Русские (Forced) - хардсаб (на надписи)

Режиссер: Николас Холлэнд

rating

В ролях: Скаут Тейлор-Комптон, Кейр Гилкрист, Билли Бойд, Дастин Принц, Эрика Хоувленд, Анджелина Даниэль Кама, Сэм Логан Халеги, Майкл Эмери, Хайме Севальос, Кайла Келли

Описание: Сэма Ходжеса и его близких преследует неизвестный злоумышленник. По мере того, как продвигается расследование, Сэм начинает опасаться, что нападения на семью могут быть связаны с тайнами, которые он тщательно скрывает от жены, дочери и детективов.

Качество: WEB-DL 1080p
Формат: MKV

Видео: MPEG-4 AVC, 6000 Kbit/s, 1920x898, 25.000 fps
Аудио: 48.0 kHz, AC3 Dolby Digital, 2/0 (L,R) ch, ~ 192 kbps
скриншот  скриншот  скриншот  скриншот  

Complete name : Vtorzhenie.2021.WEB-DL.1080p.ELEKTRI4KA.UNIONGANG.mkv
Format : Matroska
Format version : Version 4
File size : 4.09 GiB
Duration : 1 h 35 min
Overall bit rate : 6 160 kb/s
Movie name : Vtorzhenie.2021.WEB-DL.1080p.ELEKTRI4KA.UNIONGANG.
Encoded date : UTC 2022-09-24 07:58:54
Writing application : mkvmerge v8.3.0 ('Over the Horizon') 32bit
Writing library : libebml v1.3.1 + libmatroska v1.4.2

Video
ID : 1
Format : AVC
Format/Info : Advanced Video Codec
Format profile : [email protected]
Format settings : CABAC / 4 Ref Frames
Format settings, CABAC : Yes
Format settings, Reference frames : 4 frames
Codec ID : V_MPEG4/ISO/AVC
Duration : 1 h 35 min
Bit rate : 6 000 kb/s
Width : 1 920 pixels
Height : 898 pixels
Display aspect ratio : 2.138
Frame rate mode : Constant
Frame rate : 25.000 FPS
Color space : YUV
Chroma subsampling : 4:2:0
Bit depth : 8 bits
Scan type : Progressive
Bits/(Pixel*Frame) : 0.139
Stream size : 3.96 GiB (97%)
Writing library : x264 core 157
Encoding settings : cabac=1 / ref=4 / deblock=1:0:0 / analyse=0x3:0x133 / me=umh / subme=10 / psy=1 / psy_rd=1.00:0.00 / mixed_ref=1 / me_range=24 / chroma_me=1 / trellis=2 / 8x8dct=1 / cqm=0 / deadzone=21,11 / fast_pskip=1 / chroma_qp_offset=-2 / threads=28 / lookahead_threads=4 / sliced_threads=0 / nr=0 / decimate=1 / interlaced=0 / bluray_compat=0 / stitchable=1 / constrained_intra=0 / bframes=8 / b_pyramid=2 / b_adapt=2 / b_bias=0 / direct=3 / weightb=1 / open_gop=0 / weightp=2 / keyint=250 / keyint_min=25 / scenecut=40 / intra_refresh=0 / rc_lookahead=60 / rc=2pass / mbtree=1 / bitrate=6000 / ratetol=1.0 / qcomp=0.60 / qpmin=0 / qpmax=69 / qpstep=4 / cplxblur=20.0 / qblur=0.5 / vbv_maxrate=6600 / vbv_bufsize=12000 / nal_hrd=none / filler=0 / ip_ratio=1.40 / aq=1:1.00
Default : Yes
Forced : No

Audio
ID : 2
Format : AC-3
Format/Info : Audio Coding 3
Commercial name : Dolby Digital
Codec ID : A_AC3
Duration : 1 h 35 min
Bit rate mode : Constant
Bit rate : 192 kb/s
Channel(s) : 2 channels
Channel layout : L R
Sampling rate : 48.0 kHz
Frame rate : 31.250 FPS (1536 SPF)
Compression mode : Lossy
Stream size : 131 MiB (3%)
Title : MVO (KP HD)
Language : Russian
Service kind : Complete Main
Default : Yes
Forced : Yes




Скачать Вторжение через торрент https://i120.fastpic.org/big/2022/0924/5d/51076846ce2e7ee94efc491b2b87cc5d.jpg Скачать, смотреть онлайн Вторжение бесплантно в хорошем качестве Описание: Сэма Ходжеса и его близких преследует неизвестный злоумышленник. По мере того, как продвигается расследование, Сэм начинает ... 10 10 3
Торрент: Зарегистрирован [2022-09-24 10:56] · скачан: 46 раз
Статус: √ проверено
Размер: 4.09 GB
Как cкачать? Как скачать Вторжение через торрент | UTorrent

% Раздел Тема Автор DL S | L
Фильмы 2021 [DVDrip, WEB-DLRip, HDrip] (DUB, MVO) [ 745 MB ] Вторжение / An Intrusion | КиноПоиск HD | DLRip bober100 Скачать
2 | 0
Фильмы 2021 [DVDrip, WEB-DLRip, HDrip] (DUB, MVO) [ 1.09 GB ] Вторжение / An Intrusion | КиноПоиск HD | DLRip-AVC bober100 Скачать
2 | 0
Фильмы 2021 [DVDrip, WEB-DLRip, HDrip] (DUB, MVO) [ 1.37 GB ] Вторжение / An Intrusion | КиноПоиск HD | DLRip bober100 Скачать
1 | 0

28-11-2019 20:33  


Отключить вcю реклaмy на сайте, в т.ч. и в плеере онлайн просмотра!

    Дорогой пользователь! Огромная просьба, поблагодарите релизера, оцените раздачу и оставьте свои комментарий, если Вы скачали Вторжение через торрент бесплатно!!
    Комментировать посты могут только пользователи прошедшие не сложную регистрацию
    Показать сообщения:    


    Вторжение через торрент
    Скачать бесплатно Вторжение
    Вторжение скачать торрент
    Вторжение смотреть онлайн
    Cкачать фильм Вторжение бесплатно
    Вторжение скачать торрент в хорошем качестве
    Вторжение смотреть онлайн бесплатно в хорошем качестве
    Вы не можете начинать темы
    Вы не можете отвечать на сообщения
    Вы не можете редактировать свои сообщения
    Вы не можете удалять свои сообщения
    Вы не можете голосовать в опросах
    Вы не можете прикреплять файлы к сообщениям
    Вы можете скачивать файлы
    Вторжение / An Intrusion [2021, Триллер, драма, криминал, WEB-DL 1080p] MVO [КиноПоиск HD] смотреть онлайн, скачать торрент picoco.icu