Достать ножи: Стеклянная луковица

MVO

Добыча

Дубляж

Уэнсдэй

1 сезон

Тор

Дубляж

13 клиническая

1 сезон

Жестокая ночь

MVO

Одни из нас

1 сезон

Deluxe

pack

Рекомендуем

30

Пиратка

ВАЖНО

ВАЖНО

Ghostwire

Пиратка

jed

RePack

nioh2

RePack

RDR2

RePack

NEED FOR SPEED™ PAYBACK

RePack

скачать торрент

Кинопоиск HD

Острые козырьки 6 сезон

6 сезон

FAR CRY 6

RePack

скачать торрент

Лицензия

скачать торрент

MVO

1

1 сезон

скачать торрент

1 сезон

скачать торрент

Лицензия

  

Барракуда / The Enforcer (Ричард Хьюз) [2022, Боевик, триллер, драма, криминал, BDRip 1080p] Дубляж [Велес]

Барракуда через торрент pb.wtf

Раздают: 6 [ 32 KB/s ] Качают: 1 [ 0 KB/s ]
Размер: 11.26 GB | Добавлен: 1 мес. 7 д. назад | Торрент скачан:105 раз
Смотреть онлайн | Скачать | Поддержите нас   

28-09-2022 19:26 Барракуда Скачать торрент  

Барракуда
The Enforcer

Год выпуска: 2022
Страна: США
Выпущено: Born to Burn Films, Millenium Media Group, Millennium Media, Nu Boyana Film Studios
Жанр: Боевик, триллер, драма, криминал
Продолжительность: 01:30:38
Перевод: Дублированный | Велес
Субтитры: Aнглийские

Режиссер: Ричард Хьюз

rating

В ролях: Антонио Бандерас, Моджиан Ариа, Кейт Босворт, Алексис Рен, Золи Григгс, Марк Смит, Люк Бушье, Аарон Коэн, Кика Джорджиу, Костас Соммер, Кристос Василопулос, Вивиан Милкова, Наталия Берн, Дэйв Томпсон, Асен Асенов, Манос Гаврас

Описание: Барракуда — гроза преступного мира и один из самых смертоносных киллеров. Когда жертвой мафии становится невинная 15-летняя девочка, он вынужден нарушить правила и направить свой гнев против собственных работодателей.

Качество: BDRip 1080p
Формат: MKV

Видео: MPEG-4 AVC, 1920x804, 16.8 Mbit/s, 23.976 fps
Аудио #01: 48 kHz, AC3, 5.1, 384 Kbps | Дублированный | Велес | RUS |
Аудио #02: 48 kHz, AC3, 5.1, 640 Kbps | Оригинал | ENG |
скриншот  скриншот  скриншот  скриншот  скриншот  скриншот  

General
Unique ID: 307666328621514402338690133108819231673 (0xE776612809CD64E0457DE784923003B9)
Complete name: D:VideoDThe.Enforcer.2022.BDRip.1080p.seleZen.mkv
Format: Matroska
Format version: Version 4
File size: 11.3 GiB
Duration: 1 h 30 min
Overall bit rate: 17.8 Mb/s
Movie name: The Enforcer 2022 from seleZen
Encoded date: UTC 2022-12-19 21:45:18
Writing application: mkvmerge v59.0.0 ('Shining Star') 64-bit
Writing library: libebml v1.4.2 + libmatroska v1.6.4

Video
ID: 1
Format: AVC
Format/Info: Advanced Video Codec
Format profile: [email protected]
Format settings: CABAC / 5 Ref Frames
Format settings, CABAC: Yes
Format settings, Reference: 5 frames
Codec ID: V_MPEG4/ISO/AVC
Duration: 1 h 30 min
Bit rate: 16.8 Mb/s
Width: 1 920 pixels
Height: 804 pixels
Display aspect ratio: 2.40:1
Frame rate mode: Constant
Frame rate: 23.976 (24000/1001) FPS
Color space: YUV
Chroma subsampling: 4:2:0
Bit depth: 8 bits
Scan type: Progressive
Bits/(Pixel*Frame): 0.453
Stream size: 10.6 GiB (94%)
Title: GS88
Writing library: x264 core 164 r3101 b093bbe
Encoding settings: cabac=1 / ref=5 / deblock=1:-3:-3 / analyse=0x3:0x133 / me=umh / subme=10 / psy=1 / psy_rd=1.00:0.00 / mixed_ref=1 / me_range=32 / chroma_me=1 / trellis=2 / 8x8dct=1 / cqm=0 / deadzone=21, 11 / fast_pskip=0 / chroma_qp_offset=-2 / threads=12 / lookahead_threads=2 / sliced_threads=0 / nr=0 / decimate=0 / interlaced=0 / bluray_compat=0 / constrained_intra=0 / bframes=9 / b_pyramid=2 / b_adapt=2 / b_bias=0 / direct=3 / weightb=1 / open_gop=0 / weightp=2 / keyint=250 / keyint_min=23 / scenecut=40 / intra_refresh=0 / rc=crf / mbtree=0 / crf=17.0 / qcomp=0.65 / qpmin=0 / qpmax=69 / qpstep=4 / ip_ratio=1.30 / pb_ratio=1.20 / aq=3:0.80
Language: English
Default: Yes
Forced: No
Color range: Limited
Matrix coefficients: BT.709

Audio #1
ID: 2
Format: AC-3
Format/Info: Audio Coding 3
Commercial name: Dolby Digital
Codec ID: A_AC3
Duration: 1 h 30 min
Bit rate mode: Constant
Bit rate: 384 kb/s
Channel(s): 6 channels
Channel layout: L R C LFE Ls Rs
Sampling rate: 48.0 kHz
Frame rate: 31.250 FPS (1536 SPF)
Compression mode: Lossy
Stream size: 249 MiB (2%)
Title: Дубляж
Language: Russian
Service kind: Complete Main
Default: Yes
Forced: Yes

Audio #2
ID: 3
Format: AC-3
Format/Info: Audio Coding 3
Commercial name: Dolby Digital
Codec ID: A_AC3
Duration: 1 h 30 min
Bit rate mode: Constant
Bit rate: 640 kb/s
Channel(s): 6 channels
Channel layout: L R C LFE Ls Rs
Sampling rate: 48.0 kHz
Frame rate: 31.250 FPS (1536 SPF)
Compression mode: Lossy
Stream size: 415 MiB (4%)
Title: Original
Language: English
Service kind: Complete Main
Default: No
Forced: No

Text #1
ID: 4
Format: UTF-8
Codec ID: S_TEXT/UTF8
Codec ID/Info: UTF-8 Plain Text
Duration: 1 h 22 min
Bit rate: 43 b/s
Frame rate: 0.204 FPS
Count of elements: 1009
Stream size: 26.0 KiB (0%)
Title: Full
Language: English
Default: No
Forced: No

Text #2
ID: 5
Format: UTF-8
Codec ID: S_TEXT/UTF8
Codec ID/Info: UTF-8 Plain Text
Duration: 1 h 24 min
Bit rate: 31 b/s
Frame rate: 0.270 FPS
Count of elements: 1377
Stream size: 19.7 KiB (0%)
Title: SDH
Language: English
Default: No
Forced: No

Menu
00:00:00.000: BALL OF LIGHT
00:06:00.193: WANT TO DANCE?
00:14:38.836: NO SPACE FOR MERCY
00:20:22.263: I´M VEGAN
00:27:36.822: FIRE
00:34:45.750: ENOUGH!
00:43:15.718: MET A GIRL
00:48:47.633: JUST A BOY
00:54:50.579: TAKE A SEAT
01:03:54.706: A MONEY FACTORY
01:16:57.238: HELP ME
01:23:34.718: END CREDITS




Скачать Барракуда через торрент https://i121.fastpic.org/big/2022/1220/e7/16178dfbf268a8a51e8fe69897ef5ce7.jpg Скачать, смотреть онлайн Барракуда бесплантно в хорошем качестве Описание: Барракуда — гроза преступного мира и один из самых смертоносных киллеров. Когда жертвой мафии становится невинная 15-летняя ... 9.8 10 10
Торрент: Зарегистрирован [2022-12-20 03:58] · скачан: 105 раз
Статус: √ проверено
Размер: 11.26 GB
Как cкачать? Как скачать Барракуда через торрент | UTorrent

% Раздел Тема Автор DL S | L
Фильмы [HD 720p, 1080p] (Хороший звук DUB, MVO) [ 5.42 GB ] Барракуда / The Enforcer | Велес | 720p bober100 Скачать
10 | 0
Фильмы 2022-2023 [DVDrip, WEB-DLRip, HDrip] (DUB, MVO) [ 1.46 GB ] Барракуда / The Enforcer | Велес | BDRip bober100 Скачать
19 | 0
Фильмы 2022-2023 [DVDrip, WEB-DLRip, HDrip] (DUB, MVO) [ 745 MB ] Барракуда / The Enforcer | Велес | HDRip bober100 Скачать
8 | 0
Фильмы 2022-2023 [DVDrip, WEB-DLRip, HDrip] (DUB, MVO) [ 1.76 GB ] Барракуда / The Enforcer | Велес | BDRip-AVC bober100 Скачать
11 | 1
Фильмы (Blu-ray, BD-Remux, HDDVD) [ 18.8 GB ] Барракуда / The Enforcer | Велес | BD Remux 1080p bober100 Скачать
5 | 0



Последний раз редактировалось: bober100 (2022-12-20 04:01), всего редактировалось 2 раз(а)

28-11-2019 20:33  


Отключить вcю реклaмy на сайте, в т.ч. и в плеере онлайн просмотра!

29-09-2022 09:29 Барракуда Скачать торрент  

Джон Уик на минималках)))



29-09-2022 17:56 Барракуда Скачать торрент  

чуть не уснул



    Дорогой пользователь! Огромная просьба, поблагодарите релизера, оцените раздачу и оставьте свои комментарий, если Вы скачали Барракуда через торрент бесплатно!!
    Комментировать посты могут только пользователи прошедшие не сложную регистрацию
    Показать сообщения:    


    Барракуда через торрент
    Скачать бесплатно Барракуда
    Барракуда скачать торрент
    Барракуда смотреть онлайн
    Cкачать фильм Барракуда бесплатно
    Барракуда скачать торрент в хорошем качестве
    Барракуда смотреть онлайн бесплатно в хорошем качестве
    Вы не можете начинать темы
    Вы не можете отвечать на сообщения
    Вы не можете редактировать свои сообщения
    Вы не можете удалять свои сообщения
    Вы не можете голосовать в опросах
    Вы не можете прикреплять файлы к сообщениям
    Вы можете скачивать файлы
    Барракуда / The Enforcer [2022, Боевик, триллер, драма, криминал, BDRip 1080p] Дубляж [Велес] смотреть онлайн, скачать торрент picoco.icu