Аватар: Путь воды

Лицензия

В те дни

1 сезон

скачать смотреть онлайн John Wick Chapter 4

MVO

Крик 6

Дубляж

13 клиническая

3 сезон

Восстание зловещих мертвецов

Дубляж

Одни из нас

Дубляж

Dead Island 2 Gold

Gold

Deluxe RUS

Deluxe RUS

pack

Рекомендуем

ВАЖНО

ВАЖНО

30

Repack

The Lord of the Rings: Gollum

Лицензия

jed

RePack

nioh2

RePack

RDR2

RePack

NEED FOR SPEED™ PAYBACK

RePack

скачать торрент

Кинопоиск HD

Острые козырьки 6 сезон

6 сезон

FAR CRY 6

RePack

скачать торрент

Лицензия

скачать торрент

MVO

1

1 сезон

скачать торрент

1 сезон

скачать торрент

Лицензия

  

Жестокая ночь / Violent Night (Томми Виркола) [2022, Боевик, комедия, криминал, WEB-DLRip, MVO] Jaskier

Жестокая ночь через торрент pb.wtf

Раздают: 31 [ 29 KB/s ]
Размер: 1.46 GB | Добавлен: 5 мес. 17 д. назад | Торрент скачан:2123 раза
Смотреть онлайн | Скачать | Поддержите нас   

24-12-2022 08:15 Жестокая ночь Скачать торрент  

Жестокая ночь / Violent Night

Год выпуска: 2022
Выпущено: США, Канада, 87North, Québec Production Services Tax Credit
Жанр: Боевик, комедия, криминал
Режиссер: Томми Виркола / Tommy Wirkola
В ролях: Дэвид Харбор, Джон Легуизамо, Алекс Хэсселл, Алексис Лодер, Кэм Жиганде, Эди Паттерсон, Беверли Д`Анджело, Александр Эллиот, Брендан Флетчер, Майк Допуд

Описание: В канун Рождества преступники берут в заложники состоятельную семью, чтобы получить их деньги. Незадолго до этого захваченные родители подарили дочери рацию, по которой можно связаться с Сантой. Девочка вызывает подкрепление в его лице, чтобы проучить захватчиков.

rating

Продолжительность: 01:51:45
Перевод: Профессиональный (многоголосый, закадровый) | Jaskier| Ненормативная лексика
Субтитры: нет.

Формат: AVI
Качество: WEB-DLRip
Видео: 720x304 (2.35:1), 23.976 fps, XviD MPEG-4 ~ 1480 kbps avg, 0.282 bit/pixel
Аудио: 48 kHz, AC3 Dolby Digital, 3/2 (L,C,R,l,r) + LFE ch, ~ 384 kbps | RUS |

скриншот  скриншот  скриншот  скриншот  
General
Complete name : E:TorrentsViolent.Night.2022.WEB-DLRip_от New-Team_by_JNS82.avi
Format : AVI
Format/Info : Audio Video Interleave
File size : 1.46 GiB
Duration : 1 h 51 min
Overall bit rate : 1 873 kb/s
Movie name : Violent.Night.2022.
Writing application : VirtualDubModRus 1.5.10.2 (build 2542/release)
Writing library : VirtualDubMod build 2542/release
Comment : Rip by JNS82

Video
ID : 0
Format : MPEG-4 Visual
Format profile : Advanced [email protected]
Format settings : BVOP1 / Custom Matrix
Format settings, BVOP : 1
Format settings, QPel : No
Format settings, GMC : No warppoints
Format settings, Matrix : Custom
Codec ID : XVID
Codec ID/Hint : XviD
Duration : 1 h 51 min
Bit rate : 1 480 kb/s
Width : 720 pixels
Height : 304 pixels
Display aspect ratio : 2.35:1
Frame rate : 23.976 (24000/1001) FPS
Color space : YUV
Chroma subsampling : 4:2:0
Bit depth : 8 bits
Scan type : Progressive
Compression mode : Lossy
Bits/(Pixel*Frame) : 0.282
Stream size : 1.15 GiB (79%)
Writing library : XviD 69

Audio
ID : 1
Format : AC-3
Format/Info : Audio Coding 3
Commercial name : Dolby Digital
Codec ID : 2000
Duration : 1 h 51 min
Bit rate mode : Constant
Bit rate : 384 kb/s
Channel(s) : 6 channels
Channel layout : L R C LFE Ls Rs
Sampling rate : 48.0 kHz
Frame rate : 31.250 FPS (1536 SPF)
Compression mode : Lossy
Stream size : 306 MiB (21%)
Alignment : Split across interleaves
Interleave, duration : 42 ms (1.00 video frame)
Interleave, preload duratio : 500 ms
Title : MVO - Jaskier
Service kind : Complete Main




Скачать Жестокая ночь через торрент https://i121.fastpic.org/big/2022/1222/ca/118ecb42b57c5a6bdc5ae9862c7a2eca.jpg Скачать, смотреть онлайн Жестокая ночь бесплатно в хорошем качестве Описание: В канун Рождества преступники берут в заложники состоятельную семью, чтобы получить их деньги. Незадолго до этого захваченные ... 10 10 47
Info! Золотая раздача, скачанное не засчитывается.
Торрент: Зарегистрирован [2022-12-24 08:15] · скачан: 2 123 раз
Статус: √ проверено
Размер: 1.46 GB
Как cкачать? Как скачать Жестокая ночь через торрент | UTorrent

% Раздел Тема Автор DL S | L
Ultra HD (UHD: 2K, 4K, 8K) [ 20.44 GB ] Жестокая ночь / Violent Night | Jaskier | 2160p bober100 Скачать
8 | 0
Фильмы [HD 720p, 1080p] (Хороший звук DUB, MVO) [ 4.6 GB ] Жестокая ночь / Violent Night | Jaskier | 720p bober100 Скачать
2 | 0
Фильмы [HD 720p, 1080p] (Хороший звук DUB, MVO) [ 12.09 GB ] Жестокая ночь / Violent Night | Jaskier | 1080p bober100 Скачать
4 | 0

28-11-2019 20:33  


Отключить вcю реклaмy на сайте, в т.ч. и в плеере онлайн просмотра!

25-12-2022 20:46 Жестокая ночь Скачать торрент  

не плох.зря время не потратите



30-12-2022 07:15 Жестокая ночь Скачать торрент  

аля крепкий орешек и плохой санта)
но прикольно



    Дорогой пользователь! Огромная просьба, поблагодарите релизера, оцените раздачу и оставьте свои комментарий, если Вы скачали Жестокая ночь через торрент бесплатно!!
    Комментировать посты могут только пользователи прошедшие не сложную регистрацию
    Показать сообщения:    


    Жестокая ночь через торрент
    Скачать бесплатно Жестокая ночь
    Жестокая ночь скачать торрент
    Жестокая ночь смотреть онлайн
    Cкачать фильм Жестокая ночь бесплатно
    Жестокая ночь скачать торрент в хорошем качестве
    Жестокая ночь смотреть онлайн бесплатно в хорошем качестве
    Вы можете начинать темы
    Вы можете отвечать на сообщения
    Вы не можете редактировать свои сообщения
    Вы не можете удалять свои сообщения
    Вы не можете голосовать в опросах
    Вы не можете прикреплять файлы к сообщениям
    Вы можете скачивать файлы