Аватар: Путь воды

Дубляж

смотреть онлайн / скачать торрент Гран туризмо

Дубляж

смотреть онлайн / скачать торрент Кентавр

Лицензия

Активация Mortal Kombat 1

Premium

Активация Lies of P

Deluxe

Активация Resident evil 4 remake+DLC Separate Ways

Игра+DLC

смотреть онлайн / скачать торрент Два, три, демон, приди!

MVO

смотреть онлайн / скачать торрент Форсаж 10

Лицензия

смотреть онлайн / скачать торрент Ведьмак / The Witcher / Сезон: 3

3 сезон

смотреть онлайн / скачать торрент Стражи Галактики. Часть 3

Дубляж

Рекомендуем

Рекомендуем

ВАЖНО

ВАЖНО

30

Лицензия

ARMORED CORE™ VI FIRES OF RUBICON™

Steam-Rip

jed

RePack

PAYDAY 3

Пиратка

RDR2

RePack

Hogwarts Legacy

Steam-Rip

смотреть онлайн / скачать торрент Захваченный

Невафильм

смотреть онлайн / скачать торрент Острые козырьки 6 сезон

6 сезон

FAR CRY 6

RePack

смотреть онлайн / скачать торрент Доктор Стрэндж

Лицензия

скачать торрент Dead Island™ 2

EGS-Rip

скачать торрент The Quarry

Steam-Rip

смотреть онлайн / скачать торрент Мэверик

Лицензия

  

Flesh Hunter 2 / Охотник за плотью 2 (Jules Jordan) [2002 г., Gonzo, Oral, Anal, DP, DVD9]

Flesh Hunter 2 через торрент pb.wtf

Размер: 7.81 GB | Добавлен: 4 мес. 2 д. назад | Торрент скачан:33 раза
XBOX GAME PASS [PC] +400 игр (13 мес)

2023-05-27 09:31 Flesh Hunter 2 Скачать торрент  

Flesh Hunter 2 / Охотник за плотью 2

Год выпуска: 2002
Страна: США
Жанр: Gonzo, Oral, Anal, DP
Продолжительность: 02:17:49

Режиссер: Jules Jordan

В ролях: Alexa Rae, Jenna Haze, Pat Myne, Jay Ashley, Erik Everhard, Brett Rockman, Kaylynn, Shyla Stylez, Jules Jordan, Jeannie Rivers

Описание: Captured on Camera by any Means Necessary! High velocity cum shots caught and swallowed. Ass to mouth, gaping anuses, girls taken to the limit! Shyla gets a stiff cock in her ass and also performs a "synthetic" double anal! Also a huge facial! Big assed Jeannie Rivers gets fucked hard, then she sucks two cocks for a great facial creaming! Lond legged, big asses Kaylynn gets fucked in all holes! Then she sucks off two cocks! Alexa Rae looks amazing sucking cock and getting fucked hard and sensuously. The scene culminates in a spectacular facial! "Miss Teen" Jenna Haze takes oni3 hung studs who fill all her teen holes with cock Complete Mainhen swallows all their loads!

Качество: DVD9
Формат: DVD Video
Видео кодек: MPEG2
Аудио кодек: AC3
Видео: 720x480, MPEG 2, 5833 Кбит/сек
Аудио: Английский, AC3, 2 ch, 192 Кбит/сек
Видео
Идентификатор : 224 (0xE0)
Формат : MPEG Video
Версия формата : Version 2
Профиль формата : Main@Main
Настройки формата : BVOP
Параметр BVOP формата : Да
Параметр матрицы формата : По умолчанию
Параметр GOP формата : M=3, N=13
Структура изображения : Field
Продолжительность : 23 м. 17 с.
Вид битрейта : Переменный
Битрейт : 5833 Кбит/сек
Максимальный битрейт : 9800 Кбит/сек
Ширина : 720 пикселей
Высота : 480 пикселей
Соотношение сторон : 4:3
Частота кадров : 29,970 (30000/1001) кадров/сек
Стандарт вещания : NTSC
Цветовое пространство : YUV
Субдискретизация насыщенности : 4:2:0
Битовая глубина : 8 бит
Тип развёртки : Чересстрочная
Порядок развёртки : Верхнее поле первое
Метод сжатия : С потерями
Бит/(Пиксели*Кадры) : 0.563
Временной код первого кадра : 01:00:23;00
Оригинал временного кода : Group of pictures header
GOP, открыто/закрыто : Открыто
Размер потока : 972 Мбайт (95%)
Основные цвета : BT.601 NTSC
Характеристики трансфера : BT.601
Коэффициенты матрицы : BT.601

Аудио
Идентификатор : 189 (0xBD)-128 (0x80)
Формат : AC-3
Формат/Информация : Audio Coding 3
Коммерческое название : Dolby Digital
Режим смешивания : DVD-Video
Продолжительность : 23 м. 17 с.
Вид битрейта : Постоянный
Битрейт : 192 Кбит/сек
Каналы : 2 канала
ChannelLayout : L R
Частота : 48,0 КГц
Частота кадров : 31,250 кадров/сек (1536 SPF)
Метод сжатия : С потерями
Задержка видео : 14 мс.
Размер потока : 32,0 Мбайт (3%)
ServiceKind/String :






pack Скачать Flesh Hunter 2 через торрент https://i121.fastpic.org/big/2023/0527/ca/971b218d018ce809ff6997793c22e9ca.jpg Скачать, смотреть онлайн Flesh Hunter 2 бесплатно в хорошем качестве Описание: Captured on Camera by any Means Necessary! High velocity cum shots caught and swallowed. Ass to mouth, gaping anuses, girls taken ... 9.3 10 3
Info! Золотая раздача, скачанное не засчитывается.
Торрент: Зарегистрирован [2023-05-27 09:31] · скачан: 33 раз
Статус: √ проверено
Размер: 7.81 GB
Как cкачать? Как скачать Flesh Hunter 2 через торрент | UTorrent | Поделиться в телеграм

28-11-2019 20:33  


Отключить вcю реклaмy на сайте, в т.ч. и в плеере онлайн просмотра!

    Дорогой пользователь! Огромная просьба, поблагодарите релизера, оцените раздачу и оставьте свои комментарий, если Вы скачали Flesh Hunter 2 через торрент бесплатно!!
    Комментировать посты могут только пользователи прошедшие не сложную регистрацию
    Показать сообщения:    


    Flesh Hunter 2 через торрент
    Скачать бесплатно Flesh Hunter 2
    Flesh Hunter 2 скачать торрент
    Flesh Hunter 2 смотреть онлайн
    Cкачать фильм Flesh Hunter 2 бесплатно
    Flesh Hunter 2 скачать торрент в хорошем качестве
    Flesh Hunter 2 смотреть онлайн бесплатно в хорошем качестве
    Вы не можете начинать темы
    Вы не можете отвечать на сообщения
    Вы не можете редактировать свои сообщения
    Вы не можете удалять свои сообщения
    Вы не можете голосовать в опросах
    Вы не можете прикреплять файлы к сообщениям
    Вы можете скачивать файлы