Всегда рабочее зеркало без VPN и Proxy просто перед .vidak.icu напиши любое слово или цифру, Пример http://imay.vidak.icu

MVO

Лицензия

1 сезон

1

1 сезон

iTunes

1 сезон

13

1 сезон

Deluxe

pack

Рекомендуем

Пиратка

30

ВАЖНО

RePack

MK11

RePack

jed

RePack

fifa19

RePack

RDR2

RePack

NEED FOR SPEED™ PAYBACK

Кинопоиск HD

6 сезон

 Острые козырьки 6 сезон

Все сериалы

все сериалы на PB.wtf

RePack

FAR CRY 5
  
Magnet ссылка

Ключ Саламандры (Александр Якимчук / Alexander Jakimchuk) [2011, США, Россия, Нидерланды, боевик, приключения, DVD5] R5 «Columbia/Sonpb.wtf

Смотреть онлайн Ключ Саламандры | Скачать    Ребята, помогите собрать деньги на оплату серверов!!!

21-04-2011 09:27 Ключ Саламандры Скачать торрент  


Ключ Саламандры
«Завтра может не быть»
Страна: США, Россия, Нидерланды
Студия: Арсенал-ТВ, The 6th Element
Жанр: боевик, приключения
Год выпуска: 2011
Мировая премьера: 19 мая 2010
Российская премьера: 24 марта 2011, «Каскад»
Дата выхода DVD: 28 апреля 2011, «Columbia/Sony»
Дата выхода Blu-Ray: 28 апреля 2011, «Columbia/Sony»
Продолжительность: 01:39:28
Перевод: Оригинал [Лицензия]
Cубтитры: нет
Оригинальная аудиодорожка: русский
Режиссер: Александр Якимчук / Alexander Jakimchuk
В ролях: Федор Емельяненко, Говит Ваттанакул, Рутгер Хауэр, Майкл Мэдсен, Бо-сонг Ким, Павел Делонг, Валерий Николаев, Олег Чернов, Алексей Горбунов, Валерий Соловьев
Описание: «...Сегодня мы получили бесценный дар — эликсир жизни...» - гласит сенсационное заявление главы корпорации «Фарм-Лайн» в Бангкоке. Чудотворный препарат появился благодаря исследованиям свойств саламандры обновлять клетки… «Самоубийство конгрессмена! Восьмой случай за месяц! Эпидемия самоубийств!», - так звучат заголовки газет. Один из лучших полицейских тайской столицы берется за расследование череды таинственных смертей... На острове в Юго-Восточной Азии пропала Международная научная экспедиция. Последнее сообщение, полученное от ученых, говорит об угрозе глобальной катастрофы. Спасательная группа находит на острове следы лаборатории, в которой проводили опыты над животными и людьми... Что объединяет все эти события? И почему ключ к разгадке надо искать в непроходимых азиатских джунглях?.. Фильм приподнимает завесу тайн мировой индустрии продления молодости и пытается ответить на вопрос, какую цену человечество готово заплатить за мечту о бессмертии.
Бонусы: нет

Релиз группы:
Качество: DVD5 R5
Формат: DVD-Video
Видео кодек: MPEG2
Аудио кодек: AC3
Видео: PAL 16:9 (720x576(0.547)) MPEG Video,25,000 кадр/сек, 5669 Кбит/сек
Аудио: Russian (Dolby AC3, 6 ch) 448 Кбит/сек, 48,0 КГц



Title: Мой диск
Size: 4.18 Gb ( 4 386 082 KBytes ) - DVD-5
Enabled regions: 1, 2, 3, 4, 5, 6, 7, 8

VTS_01 :
Play Length: 01:39:28
Video: PAL 16:9 (720x576) VBR, Auto Letterboxed
Audio:
Russian (Dolby AC3, 6 ch)

Menu Video:
PAL 16:9 (720x576) VBR
Auto Letterboxed
Menu Audio:
Not specified (Dolby AC3, 6 ch)
Menu Subtitles:
Not specified
Menu Russian Language Unit :
Root Menu
Chapter (PTT) Menu
Общее
Полное имя : F:\Новинки 2011\Kluch.salamandry.2011.DVD5\VIDEO_TS\VTS_01_1.VOB
Формат : MPEG-PS
Размер файла : 1024 Мбайт
Продолжительность : 22 м.
Общий поток : 6241 Кбит/сек

Видео
Идентификатор : 224 (0xE0)
Формат : MPEG Video
Версия формата : Version 2
Профиль формата : Main@Main
Параметр BVOP формата : Да
Параметр матрицы формата : По умолчанию
Продолжительность : 22 м.
Вид битрейта : Переменный
Битрейт : 5669 Кбит/сек
Номинальный битрейт : 9000 Кбит/сек
Ширина : 720 пикс.
Высота : 576 пикс.
Соотношение сторон : 16:9
Частота кадров : 25,000 кадр/сек
Стандарт вещания : PAL
Цветовое пространство : YUV
Подвыборка цветности : 4:2:0
Битовая глубина : 8 бит
Тип развёртки : Прогрессивная
Порядок развёртки : Верхнее поле первое
Метод сжатия : С потерями
Бит/(Пиксели*Кадры) : 0.547
Размер потока : 930 Мбайт (91%)

Аудио
Идентификатор : 189 (0xBD)-128 (0x80)
Формат : AC-3
Формат/Информация : Audio Coding 3
Расширение режима : CM (complete main)
Режим смешивания : DVD-Video
Продолжительность : 22 м.
Вид битрейта : Постоянный
Битрейт : 448 Кбит/сек
Канал(ы) : 6 канала(ов)
Расположение каналов : Front: L C R, Side: L R, LFE
Частота : 48,0 КГц
Битовая глубина : 16 бит
Метод сжатия : С потерями
Размер потока : 73,5 Мбайт (7%)










pb.wtf



Скачать
Чтобы иметь возможность скачивать с Торрент Трекера, нужно Зарегистрироваться

Как скачивать  ·  Рейтинг и ограничения

28-11-2019 20:33  

Отключить всю рекламу на сайте

21-04-2011 10:14 Ключ Саламандры Скачать торрент  

Хм... а чего это так рано то выкладываешь?pb.wtf



21-04-2011 11:16 Ключ Саламандры Скачать торрент  

как фильм,кто смотрел?pb.wtf



26-04-2011 16:28 Ключ Саламандры Скачать торрент  

Спасибоpb.wtf



13-11-2011 14:38 Ключ Саламандры Скачать торрент  

спасибоpb.wtf



    Дорогой пользователь! Огромная просьба, поблагодарите релизера, оцените раздачу и оставьте свои комментарий, если Вы скачали Ключ Саламандры через торрент бесплатно!
    Комментировать посты могут только пользователи прошедшие не сложную регистрацию
    Показать сообщения:    

    Ключ Саламандры через торрент
    Скачать бесплатно Ключ Саламандры
    Ключ Саламандры скачать торрент
    Ключ Саламандры смотреть онлайн
    Cкачать фильм Ключ Саламандры бесплатно
    Ключ Саламандры скачать торрент в хорошем качестве
    Ключ Саламандры смотреть онлайн бесплатно в хорошем качестве


    Вы не можете начинать темы
    Вы не можете отвечать на сообщения
    Вы не можете редактировать свои сообщения
    Вы не можете удалять свои сообщения
    Вы не можете голосовать в опросах
    Вы не можете прикреплять файлы к сообщениям
    Вы не можете скачивать файлы