Ссылка на приватное зеркало нашего сайта всего за 1$. Внимание количество ограничено!!!

2 сезон

iTunes

1 сезон

1

2 сезон

2 сезон

iTunes

1 сезон

RePack

30

Ultimate

ВАЖНО

ИГРА 18+

pack

RePack

MK11
pack

Забери бонус

RePack

jed

!!Акция!!

Alien_Rage

RePack

fifa19

RePack

Assassins Creed: Odyssey

RePack

NEED FOR SPEED™ PAYBACK

4 сезон

9 сезон

Бесстыжие 9 сезон

Все сериалы

все сериалы на PB.wtf

RePack

FAR CRY 5
  

Руки-ноги за любовь / Burke and Hare (Джон Лэндис) [2010 г., триллер, комедия, BDRip 1080р] pb.wtf

Руки-ноги за любовь через торрент pb.wtf

Размер: 8.17 GB | Добавлен: 9 лет 4 мес. назад | Торрент скачан:96 раз
Скачать  

17-07-2011 06:32 Руки-ноги за любовь Скачать торрент  

Руки-ноги за любовь / Burke and Hare

Год выпуска: 2010
Страна: Великобритания
Жанр: триллер, комедия
Продолжительность: 01.31.27
Перевод: Профессиональный (полное дублирование) [лицензия]

Режиссер: Джон Лэндис

В ролях: Саймон Пегг, Энди Серкис, Айла Фишер, Том Уилкинсон, Тим Карри Кристофер, Ли Хью Бонневилль, Стефен Мерчант, Дженни Агаттер, Поллианна МакИнтош

Описание: Черная комедия, действие которой происходит в 19 веке, поведает нам историю двух грабителей могил, которые находят для себя прибыль в похищении трупов и доставки их в Эдинбургскую военно-медицинскую школу…

Качество: BDRip 1080р
Формат: MKV
Видео кодек: AVC
Аудио кодек: AC3
Видео: AVC, 10.9 Mbps, 1920 x 800 pixels, 24.000 fps, Bits/(Pixel*Frame) : 0.295
Audio #1 AC-3, 384 Kbps, 6 channels, 48.0 KHz: ru
Audio #2 DTS, 1 510 Kbps, 6 channels, 48.0 KHz : en
Text #1 : UTF-8 : ru
Text #2 : UTF-8 : en
Complete name Ruki-nogi.za.lyubov.2010.D.BDRip.1080p.mkv
Format : Matroska
File size : 8.17 GiB
Duration : 1h 31mn
Overall bit rate : 12.8 Mbps
Movie name : Release for Uniongang.tv
Encoded date : UTC 2011-07-15 19:52:17
Writing application : mkvmerge v2.4.0 ('Fumbling Towards Ecstasy') built on Oct 11 2008 20:13:15
Writing library : libebml v0.7.7 + libmatroska v0.8.1

Video
ID : 1
Format : AVC
Format/Info : Advanced Video Codec
Format profile : High@L4.1
Format settings, CABAC : Yes
Format settings, ReFrames : 4 frames
Codec ID : V_MPEG4/ISO/AVC
Duration : 1h 31mn
Bit rate : 10.9 Mbps
Width : 1 920 pixels
Height : 800 pixels
Display aspect ratio : 2.40:1
Frame rate : 24.000 fps
Color space : YUV
Chroma subsampling : 4:2:0
Bit depth : 8 bits
Scan type : Progressive
Bits/(Pixel*Frame) : 0.295
Stream size : 6.80 GiB (83%)
Title : Burke.and.Hare.2010.Bluray.1080p.DTS.x264-CHD
Writing library : x264 core 114 r1913 5fd3dce
Encoding settings : cabac=1 / ref=4 / deblock=1:-3:-3 / analyse=0x3:0x113 / me=umh / subme=9 / psy=1 / psy_rd=1.10:0.15 / mixed_ref=1 / me_range=32 / chroma_me=1 / trellis=2 / 8x8dct=1 / cqm=2 / deadzone=21,11 / fast_pskip=0 / chroma_qp_offset=-2 / threads=12 / sliced_threads=0 / nr=0 / decimate=1 / interlaced=0 / constrained_intra=0 / bframes=6 / b_pyramid=2 / b_adapt=2 / b_bias=0 / direct=3 / weightb=1 / open_gop=0 / weightp=2 / keyint=250 / keyint_min=24 / scenecut=40 / intra_refresh=0 / rc_lookahead=60 / rc=2pass / mbtree=1 / bitrate=10892 / ratetol=2.0 / qcomp=0.70 / qpmin=1 / qpmax=63 / qpstep=4 / cplxblur=20.0 / qblur=0.5 / vbv_maxrate=40000 / vbv_bufsize=30000 / nal_hrd=none / ip_ratio=1.40 / aq=1:0.90
Language : English

Audio #1
ID : 2
Format : AC-3
Format/Info : Audio Coding 3
Mode extension : CM (complete main)
Codec ID : A_AC3
Duration : 1h 31mn
Bit rate mode : Constant
Bit rate : 384 Kbps
Channel(s) : 6 channels
Channel positions : Front: L C R, Side: L R, LFE
Sampling rate : 48.0 KHz
Bit depth : 16 bits
Compression mode : Lossy
Stream size : 251 MiB (3%)
Title : AC3 5.1 @ 384 KBps - Dub, R5
Language : Russian

Audio #2
ID : 3
Format : DTS
Format/Info : Digital Theater Systems
Codec ID : A_DTS
Duration : 1h 31mn
Bit rate mode : Constant
Bit rate : 1 510 Kbps
Channel(s) : 6 channels
Channel positions : Front: L C R, Side: L R, LFE
Sampling rate : 48.0 KHz
Bit depth : 24 bits
Compression mode : Lossy
Stream size : 988 MiB (12%)
Title : DTS 5.1 @ 1536 Kbps
Language : English

Text #1
ID : 4
Format : UTF-8
Codec ID : S_TEXT/UTF8
Codec ID/Info : UTF-8 Plain Text
Language : Russian

Text #2
ID : 5
Format : UTF-8
Codec ID : S_TEXT/UTF8
Codec ID/Info : UTF-8 Plain Text
Language : English
pb.wtf



Скачать Руки-ноги за любовь через торрент http://i3.imageban.ru/out/2011/07/16/aec89c2f510044babe57563d362a4239.jpg Скачать фильм Руки-ноги за любовь через торрент бесплантно в хорошем качестве Описание: Черная комедия, действие которой происходит в 19 веке, поведает нам историю двух грабителей могил, которые находят для себя ... 10 10 2
Info! Золотая раздача, скачанное не засчитывается.
Торрент: Зарегистрирован [2011-07-17 06:32] · скачан: 96 раз
Статус: √ проверено
Размер: 8.17 GB
Как cкачать? Как скачать Руки-ноги за любовь через торрент | qTorrent

% Раздел Тема Автор DL S | L
Фильмы [HD 720p, 1080p] (Хороший звук DUB, MVO) [ 10.81 GB ] Руки-ноги за любовь / Burke and Hare [2010 BDRip 1080p by msltel] DUB DVO AVO msltel Скачать
1 | 0
Фильмы [HD 720p, 1080p] (Хороший звук DUB, MVO) [ 4.21 GB ] Руки-ноги за любовь / Burke and Hare [2010 BDRip 720p by msltel] DUB DVO AVO msltel Скачать
1 | 0
Фильмы 2010 [ 1.45 GB ] Руки-ноги за любовь / Burke and Hare [2010 HDRip DUB лицензия] lev1244v Скачать
1 | 0
Фильмы 2010 [ 701 MB ] Руки-ноги за любовь / Burke and Hare [2010 HDRipлицензия] coc900 Скачать
1 | 0
Фильмы 2010 [ 1.46 GB ] Руки-ноги за любовь / Burke and Hare [2010 HDRip лицензия] SD Скачать
1 | 0

28-11-2019 20:33  

Отключить всю рекламу на сайте

17-07-2011 08:46 Руки-ноги за любовь Скачать торрент  

вот это размер, душевно!pb.wtf



    Дорогой пользователь! Огромная просьба, поблагодарите релизера, оцените раздачу и оставьте свои комментарий, если Вы скачали Руки-ноги за любовь через торрент бесплатно! Внесите свою лепту в развитие PiratBit!
    Комментировать посты могут только пользователи прошедшие не сложную регистрацию
    Показать сообщения:    

    Руки-ноги за любовь через торрент
    Скачать бесплатно Руки-ноги за любовь
    Руки-ноги за любовь скачать торрент
    Руки-ноги за любовь смотреть онлайн
    Cкачать фильм Руки-ноги за любовь бесплатно
    Руки-ноги за любовь скачать торрент в хорошем качестве
    Руки-ноги за любовь смотреть онлайн бесплатно в хорошем качестве


    Вы не можете начинать темы
    Вы не можете отвечать на сообщения
    Вы не можете редактировать свои сообщения
    Вы не можете удалять свои сообщения
    Вы не можете голосовать в опросах
    Вы не можете прикреплять файлы к сообщениям
    Вы можете скачивать файлы