Доктор Стрэндж

Лицензия

Добыча

Дубляж

Дом дракона

1 сезон

Тор

Дубляж

В эфире

Дубляж

Там, где раки поют

MVO

Властелин колец

1 сезон

Ultimate

pack

Рекомендуем

30

Пиратка

ВАЖНО

ВАЖНО

Ghostwire

Пиратка

jed

RePack

nioh2

RePack

RDR2

RePack

NEED FOR SPEED™ PAYBACK

RePack

скачать торрент

Кинопоиск HD

Острые козырьки 6 сезон

6 сезон

FAR CRY 6

RePack

скачать торрент

Лицензия

скачать торрент

MVO

1

1 сезон

скачать торрент

1 сезон

скачать торрент

Лицензия

  

Запрещенный прием (Расширенная версия) / Sucker Punch (Extended Cut) (Зак Снайдер) [2011 г., фэнтези, боевик, триллер, приключения, HDRip-AVC]

Запрещенный прием через торрент pb.wtf

Размер: 4.37 GB | Добавлен: 11 лет назад | Торрент скачан:311 раз
Смотреть онлайн | Скачать   

19-07-2011 11:10 Запрещенный прием Скачать торрент  

Запрещенный прием (Расширенная версия) / Sucker Punch (Extended Cut)



Год выпуска: 2011
Страна: США, Канада
Жанр: фэнтези, боевик, триллер, приключения
Продолжительность: 02:07:30
Перевод: Дублированный [лицензия] + Любительский (одноголосый, закадровый перевод расширенных моментов) - [acolith]


Режиссер: Зак Снайдер
Продюссер: Дебора Снайдер, Зак Снайдер, Уэсли Коллер
Сценарий: Зак Снайдер, Стив Шибуя


Бюджет: $82 000 000
Премьера в мире: 21 марта 2011
Премьера в РФ: 31 марта 2011, «Каро-Премьер»


В ролях: Эмили Браунинг, Эбби Корниш, Джена Мэлоун, Ванесса Энн Хадженс, Джеми Чунг, Карла Гуджино, Оскар Айзек, Джон Хэмм, Скотт Гленн, Ричард Цетрон



Действие развернется в 1950 году. Молодую девушку по настоянию ее злодейского отчима определяют в больницу для душевнобольных, где спустя пять дней главную героиню лоботомируют. Чтобы оградиться от боли, она выдумывает сказочный мир, где и начинает планировать свой побег — для этого ей нужно раздобыть пять предметов.

6.30 (47 231)



Качество: HDRip-AVC
Формат: MKV
Видео кодек: H.264x
Аудио кодек: AC3
Видео: 1280x720 23.98fps 4517 Kbps
Аудио: Dolby AC3 48000Hz 6ch 384

Общее
Уникальный идентификатор : 134489108714609246302614982683381991622 (0x652DA900B0053572F629120978B808C6)
Полное имя : D:\торенты\cваты 4\Запрещенный прием [Rip by Ростик].mkv
Формат : Matroska
Версия формата : Version 2
Размер файла : 4,37 Гбайт
Продолжительность : 2 ч. 7 м.
Общий поток : 4903 Кбит/сек
Название фильма : Avidemux
Программа кодирования : Lavf52.78.0
Библиотека кодирования : Lavf52.78.0

Видео
Идентификатор : 1
Формат : AVC
Формат/Информация : Advanced Video Codec
Профиль формата : [email protected]
Параметр CABAC формата : Да
Параметр ReFrames формата : 4 кадра
Параметры GOP формата : M=4, N=27
Идентификатор кодека : V_MPEG4/ISO/AVC
Продолжительность : 2 ч. 7 м.
Битрейт : 4517 Кбит/сек
Ширина : 1280 пикс.
Высота : 720 пикс.
Соотношение сторон : 16:9
Режим частоты кадров : Переменный
Частота кадров : 23,976 кадр/сек
Цветовое пространство : YUV
Подвыборка цветности : 4:2:0
Битовая глубина : 8 бит
Тип развёртки : Прогрессивная
Бит/(Пиксели*Кадры) : 0.204
Размер потока : 3,94 Гбайт (90%)
Библиотека кодирования : x264 core 104 r1688 0b36c6d
Настройки программы : cabac=1 / ref=3 / deblock=1:0:0 / analyse=0x3:0x113 / me=hex / subme=7 / psy=1 / psy_rd=1.00:0.00 / mixed_ref=1 / me_range=16 / chroma_me=1 / trellis=1 / 8x8dct=1 / cqm=0 / deadzone=21,11 / fast_pskip=1 / chroma_qp_offset=-2 / threads=6 / sliced_threads=0 / nr=0 / decimate=1 / interlaced=0 / constrained_intra=0 / bframes=3 / b_pyramid=2 / b_adapt=1 / b_bias=0 / direct=1 / weightb=1 / open_gop=0 / weightp=2 / keyint=250 / keyint_min=23 / scenecut=40 / intra_refresh=0 / rc_lookahead=40 / rc=2pass / mbtree=1 / bitrate=4517 / ratetol=1.0 / qcomp=0.60 / qpmin=10 / qpmax=51 / qpstep=4 / cplxblur=20.0 / qblur=0.5 / ip_ratio=1.40 / aq=1:1.00
Язык : English

Аудио
Идентификатор : 2
Формат : AC-3
Формат/Информация : Audio Coding 3
Расширение режима : CM (complete main)
Идентификатор кодека : A_AC3
Продолжительность : 2 ч. 7 м.
Вид битрейта : Постоянный
Битрейт : 384 Кбит/сек
Каналы : 6 каналов
Расположение каналов : Front: L C R, Side: L R, LFE
Частота : 48,0 КГц
Битовая глубина : 16 бит
Метод сжатия : С потерями
Задержка видео : -1 м. 5 с.
Размер потока : 350 Мбайт (8%)
Язык : English

скриншот  скриншот  скриншот  



Скачать Запрещенный прием через торрент http://i25.fastpic.ru/big/2011/0719/02/5a6f35efab018132bc2474730fba4c02.png Скачать, смотреть онлайн Запрещенный прием бесплантно в хорошем качестве В ролях: Эмили Браунинг, Эбби Корниш, Джена Мэлоун, Ванесса Энн Хадженс, Джеми Чунг, Карла Гуджино, Оскар Айзек, Джон Хэмм, Скотт Гленн, ... 10 10 2
Info! Золотая раздача, скачанное не засчитывается.
Торрент: Зарегистрирован [2011-07-19 11:10] · скачан: 311 раз
Статус: √ проверено
Размер: 4.37 GB
Как cкачать? Как скачать Запрещенный прием через торрент | UTorrent

% Раздел Тема Автор DL S | L
Фильмы 2011 [ 2.9 GB ] Запрещенный прием / Sucker Punch | | HDRip-AVC killermax2013 Скачать
1 | 0
Фильмы 2011 [ 2.18 GB ] Запрещенный прием | Лицензия От R.G. PiratFilms | HDRip-AVC White Smoke Скачать
1 | 0
Фильмы (Blu-ray, BD-Remux, HDDVD) [ 31.51 GB ] Запрещенный прием / Sucker Punch | DUB Sub rus + original eng | 1080p (custom Зайчина Скачать
1 | 0
Фильмы 2011 [ 2.98 GB ] Запрещенный прием [Расширенная версия | | BDRip Leshka37 Скачать
1 | 0



Последний раз редактировалось: NarutoSasuke (2011-07-19 20:32), всего редактировалось 2 раз(а)

28-11-2019 20:33  


Отключить вcю реклaмy на сайте, в т.ч. и в плеере онлайн просмотра!

19-07-2011 13:21 Запрещенный прием Скачать торрент  

Качество: BDRip-AVC



19-07-2011 15:14 Запрещенный прием Скачать торрент  

Zormeg писал(а):

Качество: BDRip-AVC

Тогда уже и кодек не H.264, а MPEG-4 :ad:



19-07-2011 15:51 Запрещенный прием Скачать торрент  

DaRkY писал(а):

Zormeg писал(а):

Качество: BDRip-AVC

Тогда уже и кодек не H.264, а MPEG-4 :ad:

тут кодек не H.264 а х264, ибо это рип с бдрипа 720 или 1080 или ремуха, а кодек H.264 не может таким же и остаться, х264 русский кодек аналог американскому



19-07-2011 18:33 Запрещенный прием Скачать торрент  

NarutoSasuke
Добавьте, семпл и Медиа инфо.



19-07-2011 19:24 Запрещенный прием Скачать торрент  

Zormeg писал(а):

DaRkY писал(а):

Zormeg писал(а):

Качество: BDRip-AVC

Тогда уже и кодек не H.264, а MPEG-4 :ad:

тут кодек не H.264 а х264, ибо это рип с бдрипа 720 или 1080 или ремуха, а кодек H.264 не может таким же и остаться, х264 русский кодек аналог американскому

если это AVC то кодек тут MPEG4/AVC учи матчасть..



28-07-2011 19:11 Запрещенный прием Скачать торрент  

Zormeg писал(а):

х264 русский кодек аналог американскому

Вот здорово! Когда же это он обрусеть успел?



    Дорогой пользователь! Огромная просьба, поблагодарите релизера, оцените раздачу и оставьте свои комментарий, если Вы скачали Запрещенный прием через торрент бесплатно!!
    Комментировать посты могут только пользователи прошедшие не сложную регистрацию
    Показать сообщения:    


    Запрещенный прием через торрент
    Скачать бесплатно Запрещенный прием
    Запрещенный прием скачать торрент
    Запрещенный прием смотреть онлайн
    Cкачать фильм Запрещенный прием бесплатно
    Запрещенный прием скачать торрент в хорошем качестве
    Запрещенный прием смотреть онлайн бесплатно в хорошем качестве
    Вы не можете начинать темы
    Вы не можете отвечать на сообщения
    Вы не можете редактировать свои сообщения
    Вы не можете удалять свои сообщения
    Вы не можете голосовать в опросах
    Вы не можете прикреплять файлы к сообщениям
    Вы можете скачивать файлы
    Запрещенный прием / Sucker Punch [2011 г., фэнтези, боевик, триллер, приключения, HDRip-AVC] смотреть онлайн, скачать торрент picoco.icu