Ссылка на приватное зеркало нашего сайта всего за 1$. Внимание количество ограничено!!!

2 сезон

iTunes

1 сезон

1

2 сезон

2 сезон

iTunes

1 сезон

RePack

30

Ultimate

ВАЖНО

ИГРА 18+

pack

RePack

MK11
pack

Забери бонус

RePack

jed

!!Акция!!

Alien_Rage

RePack

fifa19

RePack

Assassins Creed: Odyssey

RePack

NEED FOR SPEED™ PAYBACK

4 сезон

9 сезон

Бесстыжие 9 сезон

Все сериалы

все сериалы на PB.wtf

RePack

FAR CRY 5
  

Охотники за разумом / Mindhunters (Ренни Харлин) [2004 г., триллер, детектив, BDRip 1080р] pb.wtf

Охотники за разумом через торрент pb.wtf

Размер: 11.61 GB | Добавлен: 9 лет 4 мес. назад | Торрент скачан:77 раз
Скачать  

23-07-2011 18:33 Охотники за разумом Скачать торрент  

Охотники за разумом
Mindhunters




Год выпуска: 2004
Страна: США, Финляндия, Великобритания, Нидерланды
Жанр: триллер, детектив
Продолжительность: 01:45:52
Перевод: Профессиональный (полное дублирование)

Режиссер: Ренни Харлин

В ролях: Эйон Бэйли, Клифтон Коллинз мл., Уилл Кемп, Вэл Килмер, Джонни Ли Миллер, Кэтрин Моррис, Кристиан Слэйтер, LL Кул Джей, Патрисия Веласкес, Кассандра Белл

Описание: На удаленном острове семь будущих агентов ФБР проходят решающий тест, чтобы попасть в элитный отдел «охотников за разумом» — людей, по мельчайшим уликам и любым сведениям составляющих психологические профили опаснейших преступников.

Но испытание становится слишком реальным, когда в их группе оказывается настоящий серийный убийца. Успеют ли оставшиеся в живых выявить маньяка в своих рядах, пока он не расправился с каждым поодиночке?



Качество: BDRip 1080р
Формат: MKV
Видео кодек: AVC
Аудио кодек: AC3
Видео: AVC, 1920x818 (2.35), 23.976 fps, 10.3 Mbps (0.266 bit/pixel)
Аудио №1: Русский AC3, 5.1, 48 kHz, ~448 kbps | Дубляж, R5
Аудио №2: Английский DTS, 5.1, 48 kHz, ~1510 kbps
отдельно
Аудио №3: Русский DTS, 5.1, 48 kHz, ~1510 kbps | Одноголосый закадровый, А. Гаврилов
Аудио №4: Русский DTS, 5.1, 48 kHz, ~1510 kbps | Многоголосый закадровый
Аудио №5: Русский AC3, 5.1, 48 kHz, ~448 kbps | Двухголосый закадровый, Tycoon
Субтитры: Русский, английский
Complete name Mindhunters.2004.BDRip.1080p.x264.Rus.Eng\Mindhunters.2004.BDRip.1080p.x264.Rus.Eng.mkv
Format : Matroska
File size : 9.04 GiB
Duration : 1h 45mn
Overall bit rate : 12.2 Mbps
Encoded date : UTC 2010-12-24 13:07:35
Writing application : mkvmerge v4.4.0 ('Die Wiederkehr') built on Oct 31 2010 21:52:48
Writing library : libebml v1.0.0 + libmatroska v1.0.0

Video
ID : 1
Format : AVC
Format/Info : Advanced Video Codec
Format profile : High@L4.1
Format settings, CABAC : Yes
Format settings, ReFrames : 5 frames
Codec ID : V_MPEG4/ISO/AVC
Duration : 1h 45mn
Bit rate : 10.3 Mbps
Width : 1 920 pixels
Height : 818 pixels
Display aspect ratio : 2.35:1
Frame rate : 23.976 fps
Color space : YUV
Chroma subsampling : 4:2:0
Bit depth : 8 bits
Scan type : Progressive
Bits/(Pixel*Frame) : 0.273
Stream size : 7.41 GiB (82%)
Title : Mindhunters.2004
Writing library : x264 core 107 r1766 f9f0035
Encoding settings : cabac=1 / ref=5 / deblock=1:-3:-3 / analyse=0x3:0x113 / me=umh / subme=9 / psy=1 / psy_rd=1.05:0.10 / mixed_ref=1 / me_range=32 / chroma_me=1 / trellis=2 / 8x8dct=1 / cqm=2 / deadzone=21,11 / fast_pskip=0 / chroma_qp_offset=-2 / threads=12 / sliced_threads=0 / nr=0 / decimate=1 / interlaced=0 / constrained_intra=0 / bframes=6 / b_pyramid=2 / b_adapt=2 / b_bias=0 / direct=3 / weightb=1 / open_gop=0 / weightp=2 / keyint=250 / keyint_min=23 / scenecut=40 / intra_refresh=0 / rc_lookahead=40 / rc=2pass / mbtree=0 / bitrate=10267 / ratetol=1.0 / qcomp=0.70 / qpmin=10 / qpmax=51 / qpstep=4 / cplxblur=20.0 / qblur=0.5 / vbv_maxrate=45000 / vbv_bufsize=40000 / ip_ratio=1.40 / pb_ratio=1.30 / aq=1:0.90 / nal_hrd=none
Language : English

Audio #1
ID : 2
Format : AC-3
Format/Info : Audio Coding 3
Mode extension : CM (complete main)
Codec ID : A_AC3
Duration : 1h 45mn
Bit rate mode : Constant
Bit rate : 448 Kbps
Channel(s) : 6 channels
Channel positions : Front: L C R, Side: L R, LFE
Sampling rate : 48.0 KHz
Bit depth : 16 bits
Compression mode : Lossy
Stream size : 339 MiB (4%)
Title : RUS
Language : Russian

Audio #2
ID : 3
Format : DTS
Format/Info : Digital Theater Systems
Codec ID : A_DTS
Duration : 1h 45mn
Bit rate mode : Constant
Bit rate : 1 510 Kbps
Channel(s) : 6 channels
Channel positions : Front: L C R, Side: L R, LFE
Sampling rate : 48.0 KHz
Bit depth : 24 bits
Compression mode : Lossy
Stream size : 1.12 GiB (12%)
Title : ENG
Language : English

Text #1
ID : 4
Format : UTF-8
Codec ID : S_TEXT/UTF8
Codec ID/Info : UTF-8 Plain Text
Title : RUS
Language : Russian

Text #2
ID : 5
Format : UTF-8
Codec ID : S_TEXT/UTF8
Codec ID/Info : UTF-8 Plain Text
Title : ENG
Language : English

Menu
00:00:00.000 : en:00:00:00.000
00:04:01.574 : en:00:04:01.574
00:10:12.445 : en:00:10:12.445
00:15:10.826 : en:00:15:10.826
00:19:33.213 : en:00:19:33.213
00:25:51.716 : en:00:25:51.716
00:30:45.510 : en:00:30:45.510
00:36:33.399 : en:00:36:33.399
00:41:41.207 : en:00:41:41.207
00:47:49.032 : en:00:47:49.032
00:57:20.019 : en:00:57:20.019
01:06:23.729 : en:01:06:23.729
01:12:08.574 : en:01:12:08.574
01:18:31.748 : en:01:18:31.748
01:24:33.818 : en:01:24:33.818
01:28:25.091 : en:01:28:25.091
01:34:29.372 : en:01:34:29.372
01:40:02.454 : en:01:40:02.454
pb.wtf



Скачать Охотники за разумом через торрент http://i1.imageban.ru/out/2011/07/24/ac6a84f86c79f5aa72661c92ab6008fd.png Скачать фильм Охотники за разумом через торрент бесплантно в хорошем качестве Описание: На удаленном острове семь будущих агентов ФБР проходят решающий тест, чтобы попасть в элитный отдел «охотников за разумом» — ... 9.7 10 3
Info! Золотая раздача, скачанное не засчитывается.
Торрент: Зарегистрирован [2011-07-23 18:33] · скачан: 77 раз
Статус: √ проверено
Размер: 11.61 GB
Как cкачать? Как скачать Охотники за разумом через торрент | qTorrent

% Раздел Тема Автор DL S | L
Фильмы (HD 720p, 1080p) (48-60 fps) [ 3.9 GB ] Охотники за разумом / Mindhunters [2004 WEB-DLRip 720p / 60 FPS ] от R.G. HD-Films slaventi-69 Скачать
7 | 0
Зарубежные сериалы [ 59.41 GB ] Охотник за разумом / Mindhunter / Сезон: 2 / Серии: 1-9 из 9 [2019 UHD WEBRip 2160p] DUB [SDI Media] bober100 Скачать
1 | 0
Зарубежные сериалы [ 52.16 GB ] Охотник за разумом / Mindhunter / Сезон: 1-2 / Серии: 1-19 из 19 [2017-2019 WEBRip 1080p] [DVO] killermax2013 Скачать
2 | 0
Зарубежные сериалы [ 14.05 GB ] Охотник за разумом / Mindhunter / Сезон: 2 / Серии: 1-9 из 9 [2019 WEB-DL 1080p] MVO [Jaskier] bober100 Скачать
1 | 0
Зарубежные сериалы [ 7.23 GB ] Охотник за разумом / Mindhunter / Сезон: 2 / Серии: 1-9 из 9 [2019 WEB-DLRip] MVO [LostFilm] bober100 Скачать
4 | 0
Зарубежные сериалы [ 8.96 GB ] Охотник за разумом / Mindhunter / Сезон: 2 / Серии: 1-9 из 9 [2019 WEB-DL 720p] killermax2013 Скачать
1 | 0
Зарубежные сериалы [ 6.53 GB ] Охотник за разумом / Mindhunter / Сезон: 2 / Серии: 1-9 из 9 [2019 WEB-DLRip] MVO [Jaskier] bober100 Скачать
1 | 0


Последний раз редактировалось: smaster (2011-07-24 07:02), всего редактировалось 1 раз

28-11-2019 20:33  

Отключить всю рекламу на сайте

24-07-2011 04:14 Охотники за разумом Скачать торрент  

pb.wtf



    Дорогой пользователь! Огромная просьба, поблагодарите релизера, оцените раздачу и оставьте свои комментарий, если Вы скачали Охотники за разумом через торрент бесплатно! Внесите свою лепту в развитие PiratBit!
    Комментировать посты могут только пользователи прошедшие не сложную регистрацию
    Показать сообщения:    

    Охотники за разумом через торрент
    Скачать бесплатно Охотники за разумом
    Охотники за разумом скачать торрент
    Охотники за разумом смотреть онлайн
    Cкачать фильм Охотники за разумом бесплатно
    Охотники за разумом скачать торрент в хорошем качестве
    Охотники за разумом смотреть онлайн бесплатно в хорошем качестве


    Вы не можете начинать темы
    Вы не можете отвечать на сообщения
    Вы не можете редактировать свои сообщения
    Вы не можете удалять свои сообщения
    Вы не можете голосовать в опросах
    Вы не можете прикреплять файлы к сообщениям
    Вы можете скачивать файлы