Доктор Стрэндж

Лицензия

Добыча

MVO

Дом дракона

1 сезон

Тор

Лицензия

Мэверик

Лицензия

Там, где раки поют

MVO

Властелин колец

1 сезон

Ultimate

pack

Рекомендуем

30

Repack

ВАЖНО

ВАЖНО

Ghostwire

RePack

jed

RePack

nioh2

RePack

RDR2

RePack

NEED FOR SPEED™ PAYBACK

RePack

скачать торрент

Кинопоиск HD

Острые козырьки 6 сезон

6 сезон

FAR CRY 6

RePack

скачать торрент

Лицензия

скачать торрент

MVO

1

1 сезон

скачать торрент

1 сезон

скачать торрент

Лицензия

  

Суперперцы (Расширенная версия) / Superbad (Unrated Extended Edition) (Грег Моттола) [2007 г., Комедия, мелодрама, BDRip 1080p]

Суперперцы через торрент pb.wtf

Размер: 9.82 GB | Добавлен: 11 лет назад | Торрент скачан:48 раз
Смотреть онлайн | Скачать   

15-08-2011 12:26 Суперперцы Скачать торрент  

Суперперцы (Расширенная версия) / Superbad (Unrated Extended Edition)«А у нас это в первый раз, а у вас?»


Год выпуска: 2007
Страна: США
Жанр: Комедия, мелодрама
Продолжительность: 01:58:39
Перевод: Профессиональный (Полное дублирование)


Режиссер: Грег Моттола
Продюссер: Джудд Апатоу, Шона Робертсон, Ивэн Голдберг
Сценарий: Сет Роген, Ивэн Голдберг


бюджет: $20 000 000
Премьера в мире: 17 августа 2007


В ролях: Йон Хилл, Майкл Сера, Кристофер Минц-Плассе, Билл Хадер, Сет Роджен, Марта МакАйсак, Эмили Стоун, Авива, Joe Lo Truglio, Кевин Корригэн, Клемент Блейк, Эрика Виттина Филлипс, Джо Нунез, Дэйв Франко, Марселла Ленц-Поуп, Скотт Гербачия, Лаура Сиэй, Роджер Ивата, Клинт Мэбри, Стэйси Эдвардс



Сквозь огонь и водку трое приятелей спешат на вечеринку года в честь прощания с девственностью. Как взять на абордаж красотку-одноклассницу, подорвать полицейскую машину и остаться в живых?..




Качество: BDRip 1080p
Формат: MKV
Видео кодек: H.264
Аудио кодек: AC3
Видео: 1920x1040, x264, 23.976 fps, ~ 10686 kbps
Аудио #1: Русский AC-3 at 512 Кбит/сек 6 каналов, 48,0 КГц
Аудио #2: Английский AC-3 at 640 Кбит/сек 6 каналов, 48,0 КГц

Это расширенная версия фильма ~8 минут переведено русскими субтитрами.
Слово «fuck» произносится в фильме 186 раз.
Главные герои получили свои имена от сценаристов фильма. Сэт - Сэт Роген, и Эван - Ивэн Голдберг.
В последнюю неделю съемок Кристофер Минц-пласс сломал запястье.
Джона Хилл получил главную роль в фильме во многом благодаря рекомендациям Сета Рогена (сценариста фильма и исполнителя роли офицера Майклза), с которым они вместе снимались в фильме «Немножко беременна».
Общее
Уникальный идентификатор : 217991780556104765813121325674399213056 (0xA3FFB0957193ED9590B774B601672600)
Полное имя : D:\торенты\1\Superperchi_1080p_[torrents.ru]\Superperchi.BDRip.1080p.x264.MIF.mkv
Формат : Matroska
Версия формата : Version 1
Размер файла : 9,82 Гбайт
Продолжительность : 1 ч. 58 м.
Общий поток : 11,8 Мбит/сек
Дата кодирования : UTC 2008-01-21 23:14:12
Программа кодирования : mkvmerge v2.1.0 ('Another Place To Fall') built on Aug 19 2007 13:40:07
Библиотека кодирования : libebml v0.7.7 + libmatroska v0.8.1

Видео
Идентификатор : 1
Формат : AVC
Формат/Информация : Advanced Video Codec
Профиль формата : [email protected]
Параметр CABAC формата : Да
Параметр ReFrames формата : 7 кадров
Идентификатор кодека : V_MPEG4/ISO/AVC
Продолжительность : 1 ч. 58 м.
Битрейт : 10,7 Мбит/сек
Ширина : 1920 пикс.
Высота : 1040 пикс.
Соотношение сторон : 16:9
Частота кадров : 23,976 кадр/сек
Цветовое пространство : YUV
Подвыборка цветности : 4:2:0
Битовая глубина : 8 бит
Тип развёртки : Прогрессивная
Бит/(Пиксели*Кадры) : 0.223
Размер потока : 8,67 Гбайт (88%)
Библиотека кодирования : x264 core 56 svn-680
Настройки программы : cabac=1 / ref=4 / deblock=1:-3:-3 / analyse=0x3:0x133 / me=umh / subme=7 / brdo=1 / mixed_ref=1 / me_range=16 / chroma_me=1 / trellis=1 / 8x8dct=1 / cqm=2 / deadzone=21,11 / chroma_qp_offset=0 / threads=6 / nr=0 / decimate=1 / mbaff=0 / bframes=6 / b_pyramid=1 / b_adapt=1 / b_bias=0 / direct=3 / wpredb=1 / bime=1 / keyint=250 / keyint_min=25 / scenecut=40(pre) / rc=2pass / bitrate=10686 / ratetol=1.0 / rceq='blurCplx^(1-qComp)' / qcomp=0.60 / qpmin=10 / qpmax=51 / qpstep=4 / cplxblur=20.0 / qblur=0.5 / ip_ratio=1.40 / pb_ratio=1.30 / aq=1:0.3:15.0
Язык : English

Аудио #1
Идентификатор : 2
Формат : AC-3
Формат/Информация : Audio Coding 3
Расширение режима : CM (complete main)
Идентификатор кодека : A_AC3
Продолжительность : 1 ч. 58 м.
Вид битрейта : Постоянный
Битрейт : 640 Кбит/сек
Каналы : 6 каналов
Расположение каналов : Front: L C R, Side: L R, LFE
Частота : 48,0 КГц
Битовая глубина : 16 бит
Метод сжатия : С потерями
Размер потока : 543 Мбайт (5%)
Заголовок : English DD 5.1
Язык : English

Аудио #2
Идентификатор : 3
Формат : AC-3
Формат/Информация : Audio Coding 3
Расширение режима : CM (complete main)
Идентификатор кодека : A_AC3
Продолжительность : 1 ч. 58 м.
Вид битрейта : Постоянный
Битрейт : 512 Кбит/сек
Каналы : 6 каналов
Расположение каналов : Front: L C R, Side: L R, LFE
Частота : 48,0 КГц
Битовая глубина : 16 бит
Метод сжатия : С потерями
Размер потока : 435 Мбайт (4%)
Заголовок : Russian DD 5.1 by AirMike73
Язык : Russian

Текст #1
Идентификатор : 4
Формат : UTF-8
Идентификатор кодека : S_TEXT/UTF8
Идентификатор кодека/Информация : UTF-8 Plain Text
Язык : English

Текст #2
Идентификатор : 5
Формат : UTF-8
Идентификатор кодека : S_TEXT/UTF8
Идентификатор кодека/Информация : UTF-8 Plain Text
Язык : Russian
скриншот  скриншот  скриншот  скриншот  скриншот  



Скачать Суперперцы через торрент http://i25.fastpic.ru/big/2011/0816/f9/f23eca9cfe1b31a09cca4430bc529df9.jpg Скачать, смотреть онлайн Суперперцы бесплантно в хорошем качестве В ролях: Йон Хилл, Майкл Сера, Кристофер Минц-Плассе, Билл Хадер, Сет Роджен, Марта МакАйсак, Эмили Стоун, Авива, Joe Lo Truglio, Кевин ... 10 10 3
Info! Золотая раздача, скачанное не засчитывается.
Торрент: Зарегистрирован [2011-08-15 12:26] · скачан: 48 раз
Статус: √ проверено
Размер: 9.82 GB
Как cкачать? Как скачать Суперперцы через торрент | UTorrent




Последний раз редактировалось: NarutoSasuke (2011-08-15 20:01), всего редактировалось 1 раз

28-11-2019 20:33  


Отключить вcю реклaмy на сайте, в т.ч. и в плеере онлайн просмотра!

15-08-2011 15:32 Суперперцы Скачать торрент  

ха, мегафильм... давно смарел и от души тада поржал)))



15-08-2011 18:59 Суперперцы Скачать торрент  

Постер???
Ссылка на постер - не работает!



15-08-2011 19:12 Суперперцы Скачать торрент  




16-08-2011 09:25 Суперперцы Скачать торрент  

люди встаньте на раздачу,скачал 99,7% дайте уж докачать



    Дорогой пользователь! Огромная просьба, поблагодарите релизера, оцените раздачу и оставьте свои комментарий, если Вы скачали Суперперцы через торрент бесплатно!!
    Комментировать посты могут только пользователи прошедшие не сложную регистрацию
    Показать сообщения:    


    Суперперцы через торрент
    Скачать бесплатно Суперперцы
    Суперперцы скачать торрент
    Суперперцы смотреть онлайн
    Cкачать фильм Суперперцы бесплатно
    Суперперцы скачать торрент в хорошем качестве
    Суперперцы смотреть онлайн бесплатно в хорошем качестве
    Вы не можете начинать темы
    Вы не можете отвечать на сообщения
    Вы не можете редактировать свои сообщения
    Вы не можете удалять свои сообщения
    Вы не можете голосовать в опросах
    Вы не можете прикреплять файлы к сообщениям
    Вы можете скачивать файлы