Всегда рабочее зеркало без VPN и Proxy просто перед .vidak.icu напиши любое слово или цифру, Пример http://zyg1.vidak.icu

MVO

Лицензия

1 сезон

1

1 сезон

iTunes

1 сезон

13

1 сезон

Deluxe

pack

Рекомендуем

Repack

30

ВАЖНО

RePack

MK11

RePack

jed

RePack

fifa19

RePack

RDR2

RePack

NEED FOR SPEED™ PAYBACK

Кинопоиск HD

6 сезон

 Острые козырьки 6 сезон

Все сериалы

все сериалы на PB.wtf

RePack

FAR CRY 5
  
Magnet ссылка

Денежный поезд / Money Train (Джозеф Рубин) [1995 г., боевик, триллер, драма, комедия, криминал, BDRip] pb.wtf

Денежный поезд через торрент pb.wtf

Размер: 1.46 GB | Добавлен: 10 лет назад | Торрент скачан:26 раз
Смотреть онлайн Денежный поезд | Скачать    Ребята, помогите собрать деньги на оплату серверов!!!

20-09-2011 19:41 Денежный поезд Скачать торрент  

Денежный поезд / Money Train

Год выпуска: 1995
Страна: США
Жанр: боевик, триллер, драма, комедия, криминал
Продолжительность: 01:49:58
Перевод: Дублированный

Режиссер: Джозеф Рубин
Сценарий: Даг Ричардсон, Дэвид Локери

Бюджет: $60 000 000
Премьера в мире: 12 ноября 1995


IMDB: 5.3/10
MPAA - R

В ролях: Уэсли Снайпс, Вуди Харрельсон, Дженнифер Лопез, Роберт Блейк, Крис Купер, Джо Грифази, Скотт Сауэрс, Скипп Саддат, Винсент Лареска, Нельсон Васкес

Описание: Два сводных брата, белый и чернокожий, с детства мечтавшие лишь об одном — разбогатеть, задумывают дерзкое ограбление. Цель налетчиков — поезд метро, каждую ночь перевозящий миллионы по тоннелям нью — йоркской подземки. Только два обстоятельства останавливают их: они оба полицейские, а поезд находится под личной охраной их босса.

Но соблазн слишком велик, да и вредному боссу, накануне уволившему их со службы, насолить очень уж хочется, и вот — в новогоднюю ночь пара новоявленных грабителей решает осуществить то, о чем они грезили всю жизнь — угнать поезд и стать миллионерами…


Качество: BDRip
Формат: AVI
Видео кодек: XviD
Аудио кодек: AC3
Видео: 720x304 (2.35:1), 23.976 fps, 1502 kbps, 0.286 bit/pixel
Аудио: 48 kHz, AC3 Dolby Digital, 2/0 (L,R) ch, 384.00 kbps (Русский)

&
Полное имя : D:\Роздачи\Money Train.1995.HQBDRip-PT.avi
Формат : AVI
Формат/Информация : Audio Video Interleave
Размер файла : 1,46 Гбайт
Продолжительность : 1 ч. 49 м.
Общий поток : 1895 Кбит/сек
Режиссёр : Rulya74 [720p]
Программа кодирования : VirtualDubModRus 1.5.10.2 (build 2542/release)
Библиотека кодирования : VirtualDubMod build 2542/release

Видео
Идентификатор : 0
Формат : MPEG-4 Visual
Профиль формата : Advanced [email protected]
Параметр BVOP формата : 2
Параметр QPel формата : Нет
Параметр GMC формата : Без точки перехода
Параметр матрицы формата : Default (H.263)
Режим смешивания : Сжатый битовый поток
Идентификатор кодека : XVID
Идентификатор кодека/Подсказка : XviD
Продолжительность : 1 ч. 49 м.
Битрейт : 1502 Кбит/сек
Ширина : 720 пикс.
Высота : 304 пикс.
Соотношение сторон : 2,35:1
Частота кадров : 23,976 кадр/сек
Цветовое пространство : YUV
Подвыборка цветности : 4:2:0
Битовая глубина : 8 бит
Тип развёртки : Прогрессивная
Метод сжатия : С потерями
Бит/(Пиксели*Кадры) : 0.286
Размер потока : 1,15 Гбайт (79%)
Библиотека кодирования : XviD 1.2.1 (UTC 2008-12-04)

Аудио
Идентификатор : 1
Формат : AC-3
Формат/Информация : Audio Coding 3
Расширение режима : CM (complete main)
Идентификатор кодека : 2000
Продолжительность : 1 ч. 49 м.
Вид битрейта : Постоянный
Битрейт : 384 Кбит/сек
Каналы : 2 канала
Расположение каналов : Front: L R
Частота : 48,0 КГц
Битовая глубина : 16 бит
Метод сжатия : С потерями
Размер потока : 302 Мбайт (20%)
Выравнивание : Разделение по промежуткам
Продолжительность промежутка : 42 мс. (1,00 видеокадр)
Время предзагрузки промежутка : 500 ms




pb.wtf



Скачать Денежный поезд через торрент http://lostpic.net/images/3ae88d5dbc8406fe380a999c39ebbf1b.png Скачать, смотреть онлайн Денежный поезд бесплантно в хорошем качестве Описание: Два сводных брата, белый и чернокожий, с детства мечтавшие лишь об одном — разбогатеть, задумывают дерзкое ограбление. Цель ... 10 10 2
Info! Золотая раздача, скачанное не засчитывается.
Торрент: Зарегистрирован [2011-09-20 19:41] · скачан: 26 раз
Статус: √ проверено
Размер: 1.46 GB
Как cкачать? Как скачать Денежный поезд через торрент | UTorrent

% Раздел Тема Автор DL S | L
Фильмы с авторской озвучкой [ 1.47 GB ] Денежный поезд / Money Train [1995 HDRip Авторский ] ASPID100 Скачать
1 | 0
Фильмы с авторской озвучкой [ 1.77 GB ] Денежный поезд / Money Train [1995 HDRip] 2x[AVO] killermax2013 Скачать
1 | 0
Фильмы [HD 720p, 1080p] (Хороший звук DUB, MVO) [ 5.75 GB ] Денежный поезд / Money Train [1995 BDRip 720p DUB MVO AVO] _denis_100 Скачать
1 | 0
Фильмы [HD 720p, 1080p] (Хороший звук DUB, MVO) [ 4.37 GB ] Денежный поезд / Money Train [1995 BDRip720p] Delia Скачать
1 | 0
Фильмы до 2000 г. [ 1.37 GB ] Денежный поезд / Money Train [1995 ... HDRip] кэп Скачать
1 | 0

28-11-2019 20:33  

Отключить всю рекламу на сайте

    Дорогой пользователь! Огромная просьба, поблагодарите релизера, оцените раздачу и оставьте свои комментарий, если Вы скачали Денежный поезд через торрент бесплатно!
    Комментировать посты могут только пользователи прошедшие не сложную регистрацию
    Показать сообщения:    

    Денежный поезд через торрент
    Скачать бесплатно Денежный поезд
    Денежный поезд скачать торрент
    Денежный поезд смотреть онлайн
    Cкачать фильм Денежный поезд бесплатно
    Денежный поезд скачать торрент в хорошем качестве
    Денежный поезд смотреть онлайн бесплатно в хорошем качестве


    Вы не можете начинать темы
    Вы не можете отвечать на сообщения
    Вы не можете редактировать свои сообщения
    Вы не можете удалять свои сообщения
    Вы не можете голосовать в опросах
    Вы не можете прикреплять файлы к сообщениям
    Вы можете скачивать файлы