Ссылка на приватное зеркало нашего сайта всего за 1$. Внимание количество ограничено!!!

2 сезон

iTunes

1 сезон

1

2 сезон

2 сезон

iTunes

1 сезон

RePack

30

Новинка

ВАЖНО

ИГРА 18+

pack

RePack

MK11
pack

Забери бонус

RePack

jed

!!Акция!!

Alien_Rage

RePack

fifa19

RePack

Assassins Creed: Odyssey

RePack

NEED FOR SPEED™ PAYBACK

4 сезон

9 сезон

Бесстыжие 9 сезон

Все сериалы

все сериалы на PB.wtf

RePack

FAR CRY 5
  

WTF...Большие Титьки и Задницы Шлюх / WTF... What The Fuck! Big Tit Bitches And Ass (Evil Angel) [2011, Gonzo, WEB-DL, 1080p] Split Scenes pb.wtf

WTF...Большие Титьки и Задницы Шлюх через торрент pb.wtf

Размер: 9.35 GB | Добавлен: 9 лет 2 мес. назад | Торрент скачан:161 раз
Скачать  

23-09-2011 16:17 WTF...Большие Титьки и Задницы Шлюх Скачать торрент  

What The Fuck Big Tit Bitches And Ass
Год производства: 2011
Страна: USA
Жанр: Gonzo
Продолжительность: 130 min+
Язык: Английский
Студия: Evil Angel
В ролях: Ally Kay, Candy Manson, Chanel Preston, Jada Stevens, Jenna Presley
Описание:
Ever have one of those nights - you think you've got yourself a hot slut but ended up with some nasty crack whore? Beer goggles, coyote ugly, a ten at two... well someone must have been really desperate to let these trolls into their bed... they are definitely not easy on the eyes, but WTF - some guys will fuck anything!!! Hot, nasty action with some nasty ass looking girls!!!
Доп. информация: http://www.cduniverse.com/productinfo.asp?pid=8598257


Качество: 1080p | Формат видео: MP4
Video: MPEG4 Video (H264) 1920x1080 29.97fps [Video]
Audio: AAC 44100Hz stereo 1411kbps [Audio]
Video
ID : 1
Format : AVC
Format/Info : Advanced Video Codec
Format profile : High@L4.0
Format settings, CABAC : Yes
Format settings, ReFrames : 4 frames
Codec ID : avc1
Codec ID/Info : Advanced Video Coding
Duration : 30mn 36s
Bit rate : 7 000 Kbps
Width : 1 920 pixels
Height : 1 080 pixels
Display aspect ratio : 16:9
Frame rate mode : Constant
Frame rate : 29.970 fps
Color space : YUV
Chroma subsampling : 4:2:0
Bit depth : 8 bits
Scan type : Progressive
Bits/(Pixel*Frame) : 0.113
Stream size : 1.50 GiB (98%)
Writing library : x264 core 107
Encoding settings : cabac=1 / ref=3 / deblock=1:0:0 / analyse=0x3:0x113 / me=umh / subme=6 / psy=1 / psy_rd=1.00:0.00 / mixed_ref=1 / me_range=16 / chroma_me=1 / trellis=0 / 8x8dct=1 / cqm=0 / deadzone=21,11 / fast_pskip=1 / chroma_qp_offset=-2 / threads=1 / sliced_threads=0 / nr=0 / decimate=1 / interlaced=0 / constrained_intra=0 / bframes=2 / b_pyramid=2 / b_adapt=2 / b_bias=0 / direct=2 / weightb=1 / open_gop=0 / weightp=0 / keyint=30 / keyint_min=16 / scenecut=0 / intra_refresh=0 / rc_lookahead=30 / rc=abr / mbtree=1 / bitrate=7000 / ratetol=1.0 / qcomp=0.60 / qpmin=1 / qpmax=31 / qpstep=4 / ip_ratio=1.41 / aq=1:1.00
Audio
ID : 2
Format : AAC
Format/Info : Advanced Audio Codec
Format profile : LC
Codec ID : 40
Duration : 30mn 36s
Bit rate mode : Variable
Bit rate : 152 Kbps
Channel(s) : 2 channels
Channel positions : Front: L R
Sampling rate : 44.1 KHz
Compression mode : Lossy
Stream size : 33.3 MiB (2%)
pb.wtf



pack Скачать WTF...Большие Титьки и Задницы Шлюх через торрент http://i30.fastpic.ru/big/2011/0923/c0/7d127852b3990c4559a2c790d95a2ec0.jpg Скачать фильм WTF...Большие Титьки и Задницы Шлюх через торрент бесплантно в хорошем качестве Описание: Ever have one of those nights - you think you've got yourself a hot slut but ended up with some nasty crack whore? Beer goggles, ... 10 10 1
Info! Золотая раздача, скачанное не засчитывается.
Торрент: Зарегистрирован [2011-09-23 16:17] · скачан: 161 раз
Статус: √ проверено
Размер: 9.35 GB
Как cкачать? Как скачать WTF...Большие Титьки и Задницы Шлюх через торрент | qTorrent

28-11-2019 20:33  

Отключить всю рекламу на сайте

    Дорогой пользователь! Огромная просьба, поблагодарите релизера, оцените раздачу и оставьте свои комментарий, если Вы скачали WTF...Большие Титьки и Задницы Шлюх через торрент бесплатно! Внесите свою лепту в развитие PiratBit!
    Комментировать посты могут только пользователи прошедшие не сложную регистрацию
    Показать сообщения:    

    WTF...Большие Титьки и Задницы Шлюх через торрент
    Скачать бесплатно WTF...Большие Титьки и Задницы Шлюх
    WTF...Большие Титьки и Задницы Шлюх скачать торрент
    WTF...Большие Титьки и Задницы Шлюх смотреть онлайн
    Cкачать фильм WTF...Большие Титьки и Задницы Шлюх бесплатно
    WTF...Большие Титьки и Задницы Шлюх скачать торрент в хорошем качестве
    WTF...Большие Титьки и Задницы Шлюх смотреть онлайн бесплатно в хорошем качестве


    Вы не можете начинать темы
    Вы не можете отвечать на сообщения
    Вы не можете редактировать свои сообщения
    Вы не можете удалять свои сообщения
    Вы не можете голосовать в опросах
    Вы не можете прикреплять файлы к сообщениям
    Вы можете скачивать файлы