Ссылка на приватное зеркало нашего сайта всего за 1$. Внимание количество ограничено!!!

2 сезон

iTunes

1 сезон

1

2 сезон

2 сезон

iTunes

1 сезон

RePack

30

Новинка

ВАЖНО

ИГРА 18+

pack

RePack

MK11
pack

Забери бонус

RePack

jed

!!Акция!!

Alien_Rage

RePack

fifa19

RePack

Assassins Creed: Odyssey

RePack

NEED FOR SPEED™ PAYBACK

4 сезон

9 сезон

Бесстыжие 9 сезон

Все сериалы

все сериалы на PB.wtf

RePack

FAR CRY 5
  

Добро пожаловать в рай! / Into the Blue (Джон Стокуэлл) [2005 г., боевик, триллер, криминал, приключения, BDRip (1080p)] pb.wtf

Добро пожаловать в рай! через торрент pb.wtf

Размер: 13.69 GB | Добавлен: 8 лет 10 мес. назад | Торрент скачан:58 раз
Скачать  

30-01-2012 16:54 Добро пожаловать в рай! Скачать торрент  

Добро пожаловать в рай! / Into the Blue

Год выпуска: 2005
Страна: США
Жанр: боевик, триллер, криминал, приключения
Продолжительность: 110 мин.
Перевод: Профессиональный (полное дублирование) [Лицензия]

Режиссер: Джон Стокуэлл
Продюссер: Дэвид Зелон, Брэндон Биртелл, Рик Даллаго
Сценарий: Мэтт Джонсон

Бюджет: $50 000 000
Премьера в мире: 30 сентября 2005

детям до 13 лет просмотр не желателен
Мировой рейтинг IMDB 5.70 (31 060)


В ролях: Пол Уокер, Джессика Альба, Скотт Каан, Эшли Скотт, Джош Бролин, Джеймс Фрейн, Тайсон Бекфорд, Дуэйн Эдвэй, Джэвон Фрейзер, Крис Талоа, Денис Беспалый, Жанна Никонова, Михаил Тихонов, Андрей Градов, Вячеслав Баранов

Описание: Из пункта «А» в пункт «Б» летел небольшой частный самолетик и во время грозы потерпел аварию, где-то в акватории Багамских островов… Как раз в тех местах, где молодой парень Джаред, инструктор по дайвингу, мечтает в свободное от службы время о будущей лучшей жизни вместе со своей подружкой Самантой, которая работает в местном аквапарке.

В гости к ним приезжают Брайс, давний приятель Джареда, и тоже с подружкой — Амандой. Весело проводя время на земле и на море, они в ходе очередного заплыва на глубину натыкаются на затонувший самолет, полный аккуратно запечатанных мешочков, как выяснится, с кокаином…

С этой минуты начинаются для четверых друзей настоящие приключения, с погонями и предательством, с поединком, где выигравший получает жизнь…

Похожие раздачи: Добро пожаловать в рай!

Качество: BDRip (1080p)
Формат: MKV
Видео кодек: MPEG2
Аудио кодек: AC3
Видео: 17 Мb/s, 1920x1080, 23,976 кадра/сек
Аудио#1: Russian: 48 kHz, AC3, 3/2 (L,C,R,l,r) + LFE ch, 48 КГц
Формат : Matroska
Версия формата : Version 2
Размер файла : 13,7 Гбайт
Продолжительность : 1 ч. 50 м.
Режим общего битрейта : Переменный
Общий поток : 17,8 Мбит/сек
Дата кодирования : UTC 2011-07-31 05:02:03
Программа кодирования : mkvmerge v4.0.0 ('The Stars were mine') сборка от Jun 6 2010 16:18:42
Библиотека кодирования : libebml v1.0.0 + libmatroska v1.0.0

Видео
Идентификатор : 1
Формат : MPEG Video
Версия формата : Version 2
Профиль формата : Main@High
Параметр BVOP формата : Нет
Параметр матрицы формата : Выборочная
Идентификатор кодека : V_MPEG2
Идентификатор кодека/Информация : MPEG 1 or 2 Video
Продолжительность : 1 ч. 50 м.
Вид битрейта : Переменный
Битрейт : 17,0 Мбит/сек
Максимальный битрейт : 30,0 Мбит/сек
Ширина : 1920 пикселей
Высота : 1080 пикселей
Соотношение сторон : 16:9
Частота кадров : 23,976 кадра/сек
Цветовое пространство : YUV
Субдискретизация насыщенности : 4:2:0
Битовая глубина : 8 бит
Тип развёртки : Прогрессивная
Бит/(Пиксели*Кадры) : 0.341
Размер потока : 13,1 Гбайт (95%)

Аудио
Идентификатор : 2
Формат : AC-3
Формат/Информация : Audio Coding 3
Расширение режима : CM (complete main)
Идентификатор кодека : A_AC3
Продолжительность : 1 ч. 50 м.
Вид битрейта : Постоянный
Битрейт : 448 Кбит/сек
Каналы : 6 каналов
Расположение каналов : Front: L C R, Side: L R, LFE
Частота : 48,0 КГц
Битовая глубина : 16 бит
Размер потока : 353 Мбайт (3%)
Заголовок : Дубляж
Язык : Russian




pb.wtf



Скачать Добро пожаловать в рай! через торрент http://pic.kartinco.top/images/2011/ucrq6cy3fz.jpg Скачать фильм Добро пожаловать в рай! через торрент бесплантно в хорошем качестве Описание: Из пункта «А» в пункт «Б» летел небольшой частный самолетик и во время грозы потерпел аварию, где-то в акватории Багамских ... 10 10 3
Info! Золотая раздача, скачанное не засчитывается.
Торрент: Зарегистрирован [2012-01-30 16:54] · скачан: 58 раз
Статус: √ проверено
Размер: 13.69 GB
Как cкачать? Как скачать Добро пожаловать в рай! через торрент | qTorrent

% Раздел Тема Автор DL S | L
Фильмы 2001-2005 [ 1.37 GB ] Добро пожаловать в рай / Into the Blue [x264] [2005 HDRip] TekkenxD Скачать
1 | 0
Фильмы 2001-2005 [ 2.62 GB ] Добро пожаловать в рай! / Into the Blue [2005 BDRip] MIXX_ON Скачать
2 | 0
Фильмы 2001-2005 [ 1.45 GB ] Добро пожаловать в рай! / Into the Blue [2005 HDRip] feldeger Скачать
1 | 0
Фильмы 2001-2005 [ 689 MB ] Добро пожаловать в рай / Into the Blue [2005 DVDRip Пиратка] boromir9 Скачать
1 | 0
Фильмы 2001-2005 [ 1.35 GB ] Добро пожаловать в рай! / Into the Blue [2005 BDRip 1080p] Andruuha Скачать
1 | 0
Фильмы 2009 [ 1.36 GB ] Добро пожаловать в рай! 2 / Into the Blue 2: The Reef [2009 DVDRip] paul08 Скачать
1 | 0

28-11-2019 20:33  

Отключить всю рекламу на сайте

31-01-2012 07:33 Добро пожаловать в рай! Скачать торрент  

чё за раздача - фиг чё качаетсяpb.wtf



02-02-2012 19:52 Добро пожаловать в рай! Скачать торрент  

всё норм раздаетсяpb.wtf



03-02-2012 19:36 Добро пожаловать в рай! Скачать торрент  

Slipvit:Спасибо :good:pb.wtf



06-02-2012 16:41 Добро пожаловать в рай! Скачать торрент  

не за что =)pb.wtf



11-02-2015 15:55 Добро пожаловать в рай! Скачать торрент  

Ребят если кто слышит!Дайте раздачу или как там делают ..встают на нее! Очень хочеться скачать этот фильм!))) Плиз...pb.wtf



    Дорогой пользователь! Огромная просьба, поблагодарите релизера, оцените раздачу и оставьте свои комментарий, если Вы скачали Добро пожаловать в рай! через торрент бесплатно! Внесите свою лепту в развитие PiratBit!
    Комментировать посты могут только пользователи прошедшие не сложную регистрацию
    Показать сообщения:    

    Добро пожаловать в рай! через торрент
    Скачать бесплатно Добро пожаловать в рай!
    Добро пожаловать в рай! скачать торрент
    Добро пожаловать в рай! смотреть онлайн
    Cкачать фильм Добро пожаловать в рай! бесплатно
    Добро пожаловать в рай! скачать торрент в хорошем качестве
    Добро пожаловать в рай! смотреть онлайн бесплатно в хорошем качестве


    Вы не можете начинать темы
    Вы не можете отвечать на сообщения
    Вы не можете редактировать свои сообщения
    Вы не можете удалять свои сообщения
    Вы не можете голосовать в опросах
    Вы не можете прикреплять файлы к сообщениям
    Вы можете скачивать файлы