>

8.4

Хороший звук

6.1

MVO

6.4

Line & MVO

1

7.4

1 сезон

6.8

iTunes

7.2

1 сезон

13

6.7

1 сезон

8.3

RePack

30

Deluxe

pack

9.9

Лицензия

ВАЖНО

ИГРА 18+

pack

7.3

RePack

MK11

7.7

RePack

jed

7.8

RePack

fifa19

8.5

RePack

RDR2

RePack

NEED FOR SPEED™ PAYBACK

4 сезон

9 сезон

Бесстыжие 9 сезон

Все сериалы

все сериалы на PB.wtf

RePack

FAR CRY 5

Anonymous, доброй ночи, мы катастрофически не успеваем собрать деньги на оплату серверов, помогите нам пожалуйста 5,10,15р., для нас важна любая помощь . В качестве благодарности мы отключим Вам всю рекламу на сайте (укажите свой ник в строку Ваше имя)!

×
  
Magnet ссылка

Идеальный убийца / Swamp Shark (Грифф Ферст / Griff Furst) [2011, фантастика, DVD5] R5 pb.wtf

Идеальный убийца через торрент pb.wtf

Размер: 3.96 GB | Добавлен: 9 лет 5 мес. назад | Торрент скачан:22 раза
Смотреть онлайн Идеальный убийца | Скачать    Ребята, помогите собрать деньги на оплату серверов!!!

22-03-2012 18:20 Идеальный убийца Скачать торрент  

[font="Georgia"]
Идеальный убийца / Swamp Shark
«Fresh water. Fresh meat.»
Страна: США
Студия: Bullet Films
Жанр: фантастика
Год выпуска: 2011
Мировая премьера: 25 июня 2011
Дата выхода DVD: 15 марта 2012
Продолжительность: 01:25:15
Перевод: Профессиональный (многоголосый закадровый) [Лицензия]
Cубтитры: нет
Режиссер: Грифф Ферст / Griff Furst
В ролях: Кристи Суонсон, Д.Б. Суини, Роберт Дави, Джефф Чейз, Джейсон Рогель, Ричард Танн, Софи Синиз, Вэйд Боггс, Наташа Итзель, Дилан Рэмси
Описание: Открыт купальный сезон на великолепных озерах Атчафалайя. Перед фестивалем здесь собирается много молодых людей и семей с детьми. И в ночь перед праздником чудовища вышли из болотистой части озер. Ничего не подозревающих людей ждет настоящий ужас, ведь им предстоит встреча с существом, подобного которому никто никогда не видел!
Бонусы: нет

Релиз группы:
Качество: DVD5 R5
Формат: DVD-Video
Видео кодек: MPEG2
Аудио кодек: AC3
Видео: PAL 16:9 (720x576(0.571)) MPEG Video, 25,000 кадр/сек, 5918 Кбит/сек
Аудио: Russian (Dolby AC3, 6 ch) 448 Кбит/сек, 48,0 КГц



Title:
Size: 3.96 Gb ( 4 154 092 KBytes ) - DVD-5
Enabled regions: 1, 2, 3, 4, 5, 6, 7, 8

VTS_01 :
Play Length: 00:00:10
Video: PAL 4:3 (720x576) VBR
Audio:
Russian (Dolby AC3, 2 ch)

VTS_02 :
Play Length: 01:25:15
Video: PAL 16:9 (720x576) VBR, Auto Letterboxed
Audio:
Russian (Dolby AC3, 6 ch)

Menu Video:
PAL 4:3 (720x576) VBR
Menu Subtitles:
Not specified
Menu English Language Unit :
Root Menu
Общее
Полное имя : G:\Новинки 2012\Idealnyj.ubijca.2011.DVD5\VIDEO_TS\VTS_02_1.VOB
Формат : MPEG-PS
Размер файла : 1024 Мбайт
Продолжительность : 22 м.
Режим общего битрейта : Переменный
Общий поток : 6495 Кбит/сек

Видео
Идентификатор : 224 (0xE0)
Формат : MPEG Video
Версия формата : Version 2
Профиль формата : Main@Main
Параметр BVOP формата : Да
Параметр матрицы формата : Выборочная
Параметр GOP формата : M=3, N=15
Продолжительность : 22 м.
Вид битрейта : Переменный
Битрейт : 5918 Кбит/сек
Максимальный битрейт : 9000 Кбит/сек
Ширина : 720 пикселей
Высота : 576 пикселей
Соотношение сторон : 16:9
Частота кадров : 25,000 кадров/сек
Стандарт вещания : PAL
Цветовое пространство : YUV
Субдискретизация насыщенности : 4:2:0
Битовая глубина : 8 бит
Тип развёртки : Прогрессивная
Метод сжатия : С потерями
Бит/(Пиксели*Кадры) : 0.571
Размер потока : 933 Мбайт (91%)

Аудио
Идентификатор : 189 (0xBD)-128 (0x80)
Формат : AC-3
Формат/Информация : Audio Coding 3
Расширение режима : CM (complete main)
Режим смешивания : DVD-Video
Продолжительность : 22 м.
Вид битрейта : Постоянный
Битрейт : 448 Кбит/сек
Каналы : 6 каналов
Расположение каналов : Front: L C R, Side: L R, LFE
Частота : 48,0 КГц
Битовая глубина : 16 бит
Метод сжатия : С потерями
Размер потока : 70,6 Мбайт (7%)










pb.wtf



Скачать Идеальный убийца через торрент http://i29.fastpic.ru/big/2012/0322/da/75bfe8b2c82ec805a6781c47ebf924da.png Скачать, смотреть онлайн Идеальный убийца бесплантно в хорошем качестве Описание: Открыт купальный сезон на великолепных озерах Атчафалайя. Перед фестивалем здесь собирается много молодых людей и семей с детьми. ... 4.5 10 4
Info! Золотая раздача, скачанное не засчитывается.
Торрент: Зарегистрирован [2012-03-22 18:20] · скачан: 22 раз
Статус: √ проверено
Размер: 3.96 GB
Как cкачать? Как скачать Идеальный убийца через торрент | UTorrent

28-11-2019 20:33  

Отключить всю рекламу на сайте

    Дорогой пользователь! Огромная просьба, поблагодарите релизера, оцените раздачу и оставьте свои комментарий, если Вы скачали Идеальный убийца через торрент бесплатно!
    Комментировать посты могут только пользователи прошедшие не сложную регистрацию
    Показать сообщения:    

    Идеальный убийца через торрент
    Скачать бесплатно Идеальный убийца
    Идеальный убийца скачать торрент
    Идеальный убийца смотреть онлайн
    Cкачать фильм Идеальный убийца бесплатно
    Идеальный убийца скачать торрент в хорошем качестве
    Идеальный убийца смотреть онлайн бесплатно в хорошем качестве


    Вы не можете начинать темы
    Вы не можете отвечать на сообщения
    Вы не можете редактировать свои сообщения
    Вы не можете удалять свои сообщения
    Вы не можете голосовать в опросах
    Вы не можете прикреплять файлы к сообщениям
    Вы можете скачивать файлы