Ссылка на приватное зеркало нашего сайта всего за 1$. Внимание количество ограничено!!!

2 сезон

iTunes

1 сезон

1

2 сезон

2 сезон

iTunes

1 сезон

RePack

30

Новинка

ВАЖНО

ИГРА 18+

pack

RePack

MK11
pack

Забери бонус

RePack

jed

!!Акция!!

Alien_Rage

RePack

fifa19

RePack

Assassins Creed: Odyssey

RePack

NEED FOR SPEED™ PAYBACK

4 сезон

9 сезон

Бесстыжие 9 сезон

Все сериалы

все сериалы на PB.wtf

RePack

FAR CRY 5
  

Воин / Warrior (Гэвин О’Коннор) [2011 г., Боевик, драма, спорт, BDRip (720p), лицензия] pb.wtf

Воин через торрент pb.wtf

Размер: 12.18 GB | Добавлен: 8 лет 8 мес. назад | Торрент скачан:437 раз
Скачать  

27-03-2012 15:02 Воин Скачать торрент  

Воин / Warrior

Год выпуска: 2011
Страна: США / Mimran Schur Pictures, Lionsgate, Solaris
Жанр: Боевик, драма, спорт
Продолжительность: 02:19:54
Перевод: Профессиональный (многоголосый, закадровый) [Лицензия]
Тип релиза: Лицензия

Режиссер: Гэвин О’Коннор

В ролях: Джоэл Эдгертон, Том Харди, Ник Нолти, Дженнифер Моррисон, Фрэнк Грилло, Кевин Данн, Максимилианно Эрнандез, Брайан Коллен, Сэм Шеридан, Фернандо Чиен

Описание: Младший сын спившегося боксера возвращается домой, чтобы отец тренировал его для предстоящего турнира по боевым искусствам. Однако, на этом пути бойцу придется столкнуться со своим старшим братом.

Качество: BDRip (720p)
Формат: MKV
Видео кодек: H.26x
Аудио кодек: AC3
Видео: 9000 kb/s, 1280x534,23.976 fps
Аудио#1: Russian: AC3, 224 kb/s (2 ch) 48.0 KHz
Аудио#2: Russian: DTS, 1510 kb/s (6 ch) [Ю.Сербин] 48.0 KHz
Аудио#3: English: DTS, 1510 kb/s (6 ch) 48.0 KHz
Аудио#4: English: AC3, 224 kb/s (2 ch) [Commentary] 48.0 KHz
Субтитры: Русские, английские, английские (SDH)
Complete name : Voin.2011.P.BDRip.720p..mkv
Format : Matroska
Format version : Version 2
File size : 12.2 GiB
Duration : 2h 19mn
Overall bit rate : 12.5 Mbps
Movie name : Warrior (2011) - Realeased by IronClub.TV
Encoded date : UTC 2012-03-26 17:49:28
Writing application : mkvmerge v4.9.1 ('Ich will') сборка от Jul 11 2011 23:53:15
Writing library : libebml v1.2.1 + libmatroska v1.1.1

Video
ID : 1
Format : AVC
Format/Info : Advanced Video Codec
Format profile : High@L4.1
Format settings, CABAC : Yes
Format settings, ReFrames : 12 frames
Codec ID : V_MPEG4/ISO/AVC
Duration : 2h 19mn
Bit rate : 9 000 Kbps
Width : 1 280 pixels
Height : 534 pixels
Display aspect ratio : 2.40:1
Frame rate : 23.976 fps
Color space : YUV
Chroma subsampling : 4:2:0
Bit depth : 8 bits
Scan type : Progressive
Bits/(Pixel*Frame) : 0.549
Stream size : 8.55 GiB (70%)
Title : Warrior (2011) - Realeased by IronClub.TV
Writing library : x264 core 120 r2120 0c7dab9
Encoding settings : cabac=1 / ref=12 / deblock=1:-3:-3 / analyse=0x3:0x133 / me=tesa / subme=11 / psy=1 / psy_rd=1.05:0.05 / mixed_ref=1 / me_range=24 / chroma_me=1 / trellis=2 / 8x8dct=1 / cqm=0 / deadzone=21,11 / fast_pskip=0 / chroma_qp_offset=-3 / threads=12 / sliced_threads=0 / nr=0 / decimate=0 / interlaced=0 / bluray_compat=0 / constrained_intra=0 / bframes=7 / b_pyramid=2 / b_adapt=2 / b_bias=0 / direct=3 / weightb=1 / open_gop=0 / weightp=2 / keyint=250 / keyint_min=23 / scenecut=40 / intra_refresh=0 / rc=2pass / mbtree=0 / bitrate=9000 / ratetol=1.0 / qcomp=0.60 / qpmin=0 / qpmax=69 / qpstep=4 / cplxblur=20.0 / qblur=0.5 / ip_ratio=1.40 / pb_ratio=1.30 / aq=1:0.60
Language : English
Default : Yes
Forced : Yes

Audio #1
ID : 2
Format : AC-3
Format/Info : Audio Coding 3
Mode extension : CM (complete main)
Codec ID : A_AC3
Duration : 2h 19mn
Bit rate mode : Constant
Bit rate : 224 Kbps
Channel(s) : 2 channels
Channel positions : Front: L R
Sampling rate : 48.0 KHz
Bit depth : 16 bits
Compression mode : Lossy
Stream size : 224 MiB (2%)
Title : DD 2.0 @ 224 kbps - MVO, R5
Language : Russian
Default : Yes
Forced : Yes

Audio #2
ID : 3
Format : DTS
Format/Info : Digital Theater Systems
Format profile : ES
Codec ID : A_DTS
Duration : 2h 19mn
Bit rate mode : Constant
Bit rate : 1 510 Kbps
Channel(s) : 6 channels
Channel positions : Front: L C R, Side: L R, LFE
Sampling rate : 48.0 KHz
Bit depth : 24 bits
Compression mode : Lossy
Stream size : 1.48 GiB (12%)
Title : DTS 5.1 @ 1536 kbps - [Ю.Сербин]
Language : Russian
Default : No
Forced : No

Audio #3
ID : 4
Format : DTS
Format/Info : Digital Theater Systems
Codec ID : A_DTS
Duration : 2h 19mn
Bit rate mode : Constant
Bit rate : 1 510 Kbps
Channel(s) : 6 channels
Channel positions : Front: L C R, Side: L R, LFE
Sampling rate : 48.0 KHz
Bit depth : 24 bits
Compression mode : Lossy
Stream size : 1.48 GiB (12%)
Title : DTS 5.1 @ 1536 kbps
Language : English
Default : No
Forced : No

Audio #4
ID : 5
Format : AC-3
Format/Info : Audio Coding 3
Mode extension : CM (complete main)
Codec ID : A_AC3
Duration : 2h 19mn
Bit rate mode : Constant
Bit rate : 224 Kbps
Channel(s) : 2 channels
Channel positions : Front: L R
Sampling rate : 48.0 KHz
Bit depth : 16 bits
Compression mode : Lossy
Stream size : 224 MiB (2%)
Title : Commentary with Gavin O'Connor, Anthony Tambakis, Joel Edgerton
Language : English
Default : No
Forced : No

Text #1
ID : 6
Format : UTF-8
Codec ID : S_TEXT/UTF8
Codec ID/Info : UTF-8 Plain Text
Language : Russian
Default : No
Forced : No

Text #2
ID : 7
Format : UTF-8
Codec ID : S_TEXT/UTF8
Codec ID/Info : UTF-8 Plain Text
Language : English
Default : No
Forced : No

Text #3
ID : 8
Format : UTF-8
Codec ID : S_TEXT/UTF8
Codec ID/Info : UTF-8 Plain Text
Title : SDH
Language : English
Default : No
Forced : No

Text #4
ID : 9
Format : UTF-8
Codec ID : S_TEXT/UTF8
Codec ID/Info : UTF-8 Plain Text
Title : Latino
Language : Spanish
Default : No
Forced : No

Menu
00:00:00.000 : en:00:00:00.000
00:10:32.840 : en:00:10:32.840
00:16:46.714 : en:00:16:46.714
00:26:34.551 : en:00:26:34.551
00:39:08.971 : en:00:39:08.971
00:45:49.622 : en:00:45:49.622
00:51:28.919 : en:00:51:28.919
00:58:27.796 : en:00:58:27.796
01:06:02.458 : en:01:06:02.458
01:14:27.254 : en:01:14:27.254
01:22:32.906 : en:01:22:32.906
01:30:35.638 : en:01:30:35.638
01:40:46.040 : en:01:40:46.040
01:52:55.977 : en:01:52:55.977
02:00:21.089 : en:02:00:21.089
02:06:50.394 : en:02:06:50.394
pb.wtf



Скачать Воин через торрент http://2.firepic.org/2/images/2012-03/27/gam561byjsuj.png Скачать фильм Воин через торрент бесплантно в хорошем качестве Описание: Младший сын спившегося боксера возвращается домой, чтобы отец тренировал его для предстоящего турнира по боевым искусствам. ... 10 10 6
Info! Золотая раздача, скачанное не засчитывается.
Торрент: Зарегистрирован [2012-03-27 15:02] · скачан: 437 раз
Статус: √ проверено
Размер: 12.18 GB
Как cкачать? Как скачать Воин через торрент | qTorrent

% Раздел Тема Автор DL S | L
Фильмы (Blu-ray, BD-Remux, HDDVD) [ 22.92 GB ] 13-й воин / The 13th Warrior [1999 BD-Remux DUB ] shuller Скачать
1 | 0
Action FPS (1st Person) [ 6.96 GB ] Sniper: Ghost Warrior / Снайпер. Воин-Призрак [лицензия ENG/MULTI6 Shooter Action TPS] Mr. Freeman Скачать
1 | 1
Фильмы 2011 [ 2.06 GB ] Воин / Warrior [2011 HDRip лицензия] VaGaBoNd Скачать
1 | 0
RTS (стратегии в реальном времени) [ 4.23 GB ] King's Bounty: Воин Севера / King's Bounty: Warriors of the North 2012 [лицензия RU/EN Тактическая стратегия] - [FLT] Anonymous Скачать
1 | 0
Action FPS (1st Person) [ 26 MB ] Cemetery Warrior 2 / Кладбищенский воин 2 2013 [лицензия RU Shooter] Tobus Скачать
1 | 0
Action FPS (1st Person) [ 6.57 GB ] Sniper: Ghost Warrior - Gold Edition / Снайпер. Воин Призрак - Золотое издание [лицензия Только RU Shooter Action TPS] Russian Mafia Скачать
1 | 0
Азиатские фильмы [ 1.37 GB ] Воин севера / Jadesoturi / Jade Warrior [2006 DVDRip MVO лицензия] lexxus350 Скачать
1 | 0

28-11-2019 20:33  

Отключить всю рекламу на сайте

27-03-2012 17:57 Воин Скачать торрент  

Спосибо кинцо просто супер!!!pb.wtf



31-03-2012 22:51 Воин Скачать торрент  

Всем советую отличное кино!!!pb.wtf



01-04-2012 21:25 Воин Скачать торрент  

этот фильм можно пересматривать и пересматриватьpb.wtf



    Дорогой пользователь! Огромная просьба, поблагодарите релизера, оцените раздачу и оставьте свои комментарий, если Вы скачали Воин через торрент бесплатно! Внесите свою лепту в развитие PiratBit!
    Комментировать посты могут только пользователи прошедшие не сложную регистрацию
    Показать сообщения:    

    Воин через торрент
    Скачать бесплатно Воин
    Воин скачать торрент
    Воин смотреть онлайн
    Cкачать фильм Воин бесплатно
    Воин скачать торрент в хорошем качестве
    Воин смотреть онлайн бесплатно в хорошем качестве


    Вы не можете начинать темы
    Вы не можете отвечать на сообщения
    Вы не можете редактировать свои сообщения
    Вы не можете удалять свои сообщения
    Вы не можете голосовать в опросах
    Вы не можете прикреплять файлы к сообщениям
    Вы можете скачивать файлы