Ссылка на приватное зеркало нашего сайта всего за 1$. Внимание количество ограничено!!!

2 сезон

iTunes

1 сезон

1

2 сезон

2 сезон

iTunes

1 сезон

RePack

30

Ultimate

ВАЖНО

ИГРА 18+

pack

RePack

MK11
pack

Забери бонус

RePack

jed

!!Акция!!

Alien_Rage

RePack

fifa19

RePack

Assassins Creed: Odyssey

RePack

NEED FOR SPEED™ PAYBACK

4 сезон

9 сезон

Бесстыжие 9 сезон

Все сериалы

все сериалы на PB.wtf

RePack

FAR CRY 5
  

Поворот не туда 2: Тупик / Wrong Turn 2: Dead End (Джо Линч) [2007 г., ужасы, триллер, BDRip (1080p)] DUB pb.wtf

Поворот не туда 2: Тупик через торрент pb.wtf

Размер: 8.21 GB | Добавлен: 8 лет 7 мес. назад | Торрент скачан:18 раз
Скачать  

04-04-2012 16:11 Поворот не туда 2: Тупик Скачать торрент  

Поворот не туда 2: Тупик / Wrong Turn 2: Dead End

Год выпуска: 2007
Страна: США
Жанр: ужасы, триллер
Продолжительность: 01:36:57
Перевод: Профессиональный (полное дублирование) + оригинал

Режиссер: Джо Линч

В ролях: Эрика Лирсен, Генри Роллинз, Тексас Бэттл, Даниелла Алонсо, Стив Браун, Алекса Палладино, Мэттью Карри Холмс, Кристал Лоу, Кимберли Колдуэлл, Уэйн Робсон

Описание: В печально известном по событиям первого фильма лесу, местная телекомпания снимает реалити-шоу в духе «Последнего героя». Участникам проекта предстоит вести образ жизни первобытных племен без современных средств связи… на радость обитающим неподалеку каннибалам.

Качество: BDRip (1080p)
Формат: MKV
Видео кодек: H.264
Аудио кодек: AC3, DTS
Видео: 1920x1080, ~10.2 Mbps, 23.97fps
Аудио#1: 48 kHz, AC3 Dolby Digital, 3/2 (L,C,R,l,r) + LFE ch, ~384.00 kbps avg |Dub|
Аудио#2: 48 kHz, DTS, Front: L C R, Surround: L R, LFE, !1536.00 kbps avg |eng|
Субтитры: русские, английские

Общее
Уникальный идентификатор : 252812375055069361500795516640875939199 (0xBE31E470979E0C508CE3C3D36442857F)
Формат : Matroska
Версия формата : Version 2
Размер файла : 8,21 Гбайт
Продолжительность : 1 ч. 36 м.
Общий поток : 12,1 Мбит/сек
Дата кодирования : UTC 2010-01-02 00:04:26
Программа кодирования : mkvmerge v2.9.7 ('Tenderness') built on Jul 1 2009 18:43:35
Библиотека кодирования : libebml v0.7.7 + libmatroska v0.8.1

Видео
Идентификатор : 1
Формат : AVC
Формат/Информация : Advanced Video Codec
Профиль формата : High@L4.1
Параметр CABAC формата : Да
Параметр ReFrames формата : 4 кадра
Идентификатор кодека : V_MPEG4/ISO/AVC
Продолжительность : 1 ч. 36 м.
Битрейт : 10,2 Мбит/сек
Ширина : 1920 пикс.
Высота : 1080 пикс.
Соотношение сторон : 16:9
Частота кадров : 23,976 кадр/сек
Цветовое пространство : YUV
Подвыборка цветности : 4:2:0
Битовая глубина : 8 бит
Тип развёртки : Прогрессивная
Бит/(Пиксели*Кадры) : 0.206
Размер потока : 6,76 Гбайт (82%)
Библиотека кодирования : x264 core 79 r1347 5ddd61b
Настройки программы : cabac=1 / ref=4 / deblock=1:0:0 / analyse=0x3:0x133 / me=umh / subme=7 / psy=1 / psy_rd=1.0:0.0 / mixed_ref=1 / me_range=16 / chroma_me=1 / trellis=1 / 8x8dct=1 / cqm=0 / deadzone=21,11 / chroma_qp_offset=-2 / threads=12 / nr=0 / decimate=1 / mbaff=0 / constrained_intra=0 / bframes=3 / b_pyramid=0 / b_adapt=1 / b_bias=0 / direct=1 / wpredb=1 / wpredp=2 / keyint=250 / keyint_min=25 / scenecut=40 / rc_lookahead=40 / rc=2pass / mbtree=1 / bitrate=10225 / ratetol=1.0 / qcomp=0.60 / qpmin=10 / qpmax=51 / qpstep=4 / cplxblur=20.0 / qblur=0.5 / ip_ratio=1.40 / aq=1:1.00
Язык : English

Аудио #1
Идентификатор : 2
Формат : AC-3
Формат/Информация : Audio Coding 3
Расширение режима : CM (complete main)
Идентификатор кодека : A_AC3
Продолжительность : 1 ч. 36 м.
Вид битрейта : Постоянный
Битрейт : 384 Кбит/сек
Каналы : 6 каналов
Расположение каналов : Front: L C R, Side: L R, LFE
Частота : 48,0 КГц
Битовая глубина : 16 бит
Метод сжатия : С потерями
Задержка видео : 880 мс.
Размер потока : 266 Мбайт (3%)
Язык : Russian

Аудио #2
Идентификатор : 3
Формат : DTS
Формат/Информация : Digital Theater Systems
Идентификатор кодека : A_DTS
Продолжительность : 1 ч. 36 м.
Вид битрейта : Постоянный
Битрейт : 1510 Кбит/сек
Каналы : 6 каналов
Расположение каналов : Front: L C R, Side: L R, LFE
Частота : 48,0 КГц
Битовая глубина : 24 бит
Метод сжатия : С потерями
Размер потока : 1,02 Гбайт (12%)
Язык : English

Текст #1
Идентификатор : 4
Формат : UTF-8
Идентификатор кодека : S_TEXT/UTF8
Идентификатор кодека/Информация : UTF-8 Plain Text
Язык : English

Текст #2
Идентификатор : 5
Формат : UTF-8
Идентификатор кодека : S_TEXT/UTF8
Идентификатор кодека/Информация : UTF-8 Plain Text
Язык : Russian
pb.wtf



Скачать Поворот не туда 2: Тупик через торрент http://pic.kartinco.top/images/2000/62wpgklhsv.jpg Скачать фильм Поворот не туда 2: Тупик через торрент бесплантно в хорошем качестве Описание: В печально известном по событиям первого фильма лесу, местная телекомпания снимает реалити-шоу в духе «Последнего героя». ... 10 10 4
Info! Золотая раздача, скачанное не засчитывается.
Торрент: Зарегистрирован [2012-04-04 16:11] · скачан: 18 раз
Статус: √ проверено
Размер: 8.21 GB
Как cкачать? Как скачать Поворот не туда 2: Тупик через торрент | qTorrent

% Раздел Тема Автор DL S | L
Фильмы 2006-2008 [ 1.72 GB ] Поворот не туда 2: Тупик / Wrong Turn 2: Dead End [Unrated] [2007 HDRip] DUB BaRSSS Скачать
1 | 0

28-11-2019 20:33  

Отключить всю рекламу на сайте

    Дорогой пользователь! Огромная просьба, поблагодарите релизера, оцените раздачу и оставьте свои комментарий, если Вы скачали Поворот не туда 2: Тупик через торрент бесплатно! Внесите свою лепту в развитие PiratBit!
    Комментировать посты могут только пользователи прошедшие не сложную регистрацию
    Показать сообщения:    

    Поворот не туда 2: Тупик через торрент
    Скачать бесплатно Поворот не туда 2: Тупик
    Поворот не туда 2: Тупик скачать торрент
    Поворот не туда 2: Тупик смотреть онлайн
    Cкачать фильм Поворот не туда 2: Тупик бесплатно
    Поворот не туда 2: Тупик скачать торрент в хорошем качестве
    Поворот не туда 2: Тупик смотреть онлайн бесплатно в хорошем качестве


    Вы не можете начинать темы
    Вы не можете отвечать на сообщения
    Вы не можете редактировать свои сообщения
    Вы не можете удалять свои сообщения
    Вы не можете голосовать в опросах
    Вы не можете прикреплять файлы к сообщениям
    Вы можете скачивать файлы