Лицензия

MVO

1

1 сезон

Лицензия

Лицензия

13

MVO

1 сезон

Deluxe Edition

pack

Рекомендуем

30

Repack

ВАЖНО

ВАЖНО

Ghostwire

RePack

jed

RePack

fifa19

RePack

RDR2

RePack

NEED FOR SPEED™ PAYBACK

RePack

Кинопоиск HD

 Острые козырьки 6 сезон

6 сезон

FAR CRY 6

RePack

Лицензия

MVO

1

1 сезон

1 сезон

Лицензия

  

Дневники мотылька / The Moth Diaries (Мэри Хэррон /Mary Harron) [2011, Канада, Ирландия, ужасы, DVDRip, Любительский (двухголосый)]

Дневники мотылька через торрент pb.wtf

Размер: 887 MB | Добавлен: 10 лет назад | Торрент скачан:140 раз
Смотреть онлайн Дневники мотылька | Скачать   

07-04-2012 16:50 Дневники мотылька Скачать торрент  

Дневники мотылька / The Moth Diaries
[font="Georgia"]Страна
:[font="cursive"]Канада, Ирландия
[font="Georgia"]Жанр:[font="cursive"]ужасы
[font="Georgia"]Год выпуска:[font="cursive"] 2011
[font="Georgia"]Продолжительность: [font="monospace"]01:19:36
[font="Georgia"]Перевод: [font="Arial"]любительский (двухголосый закадровый)
[font="monospace"]Режиссер: [font="Georgia"]Мэри Хэррон /Mary Harron
[font="monospace"]В ролях: [font="cursive"]Скотт Спидман, Энн Дэй-Джонс, Лили Коул, Сара Болджер, Сара Гадон
[font="monospace"]Описание: [font="Arial"]В центре событий элитная школа-интернат для девочек, в которой учится Люси Блэйк. Она ведет дневник, куда записывает все самое сокровенное. В интернате Люси знакомится с девушкой по имени Эрнесса. Эрнесса таинственна, у нее бледная кожа и гипнотический взгляд. Про нее ходят темные слухи, о том, что она притягивает к себе беды. Вскоре фантазии и реальность начинают смешиваться…



[font="Georgia"]Качество видео:[font="sans-serif"] DVDRip
[font="Georgia"]Формат видео:[font="sans-serif"] AVI
[font="Georgia"]Видео кодек:[font="sans-serif"] XviD
[font="Georgia"]Аудио кодек:[font="sans-serif"] Mp3
[font="Georgia"]Видео:[font="cursive"] XviD, 640x352 (1.82:1), 23.976 fps, 1094 kbps avg, 0.20 bit/pixel
[font="Georgia"]Аудио 1:[font="cursive"] Русский, 48 kHz, MPEG Layer 3, 2 ch, 320 kbps
[font="Georgia"]Аудио 2:[font="cursive"] Английский, 48 kHz, MPEG Layer 3, 2 ch, 128 kbps
Релиз от: Нет в кино
General
Complete name : C:\Новая папка\2011 - Дневники мотылька\the_moth_diaries.avi
Format : AVI
Format/Info : Audio Video Interleave
File size : 887 MiB
Duration : 1h 19mn
Overall bit rate : 1 557 Kbps
Writing application : VirtualDubMod 1.5.10.2 (build 2540/release)
Writing library : VirtualDubMod build 2540/release

Video
ID : 0
Format : MPEG-4 Visual
Format profile : Advanced [email protected]
Format settings, BVOP : 1
Format settings, QPel : Yes
Format settings, GMC : No warppoints
Format settings, Matrix : Default (MPEG)
Codec ID : XVID
Codec ID/Hint : XviD
Duration : 1h 19mn
Bit rate : 1 095 Kbps
Width : 640 pixels
Height : 352 pixels
Display aspect ratio : 16:9
Frame rate : 23.976 fps
Color space : YUV
Chroma subsampling : 4:2:0
Bit depth : 8 bits
Scan type : Progressive
Compression mode : Lossy
Bits/(Pixel*Frame) : 0.203
Stream size : 624 MiB (70%)
Writing library : XviD 1.2.1 (UTC 2008-12-04)

Audio #1
ID : 1
Format : MPEG Audio
Format version : Version 1
Format profile : Layer 3
Mode : Joint stereo
Codec ID : 55
Codec ID/Hint : MP3
Duration : 1h 19mn
Bit rate mode : Constant
Bit rate : 320 Kbps
Channel(s) : 2 channels
Sampling rate : 48.0 KHz
Compression mode : Lossy
Stream size : 182 MiB (21%)
Alignment : Aligned on interleaves
Interleave, duration : 42 ms (1.00 video frame)
Interleave, preload duration : 504 ms

Audio #2
ID : 2
Format : MPEG Audio
Format version : Version 1
Format profile : Layer 3
Codec ID : 55
Codec ID/Hint : MP3
Duration : 1h 19mn
Bit rate mode : Constant
Bit rate : 128 Kbps
Channel(s) : 2 channels
Sampling rate : 48.0 KHz
Compression mode : Lossy
Stream size : 72.9 MiB (8%)
Alignment : Aligned on interleaves
Interleave, duration : 42 ms (1.00 video frame)
Interleave, preload duration : 504 ms
Writing library : LAME3.98r
Encoding settings : -m s -V 4 -q 2 -lowpass 17 -b 128



Скачать Дневники мотылька через торрент https://pic1.kartinco.top/images/2000/1v9hj6rc73.jpg Скачать, смотреть онлайн Дневники мотылька бесплантно в хорошем качестве Описание: [font="Arial"]В центре событий элитная школа-интернат для девочек, в которой учится Люси Блэйк. Она ведет дневник, куда ... 4.9 10 7
Info! Золотая раздача, скачанное не засчитывается.
Торрент: Зарегистрирован [2012-04-07 16:56] · скачан: 140 раз
Статус: T временная
Размер: 887 MB
Как cкачать? Как скачать Дневники мотылька через торрент | UTorrent

% Раздел Тема Автор DL S | L
Фильмы [HD 720p, 1080p] (Хороший звук DUB, MVO) [ 3.61 GB ] Дневники мотылька / The Moth Diaries | | 720p gus82 Скачать
1 | 0

28-11-2019 20:33  

Отключить вcю реклaмy на сайте

07-04-2012 17:26 Дневники мотылька Скачать торрент  

Статус:

Код:

T временная

Причина: Перевод: любительский (двухголосый закадровый)



    Дорогой пользователь! Огромная просьба, поблагодарите релизера, оцените раздачу и оставьте свои комментарий, если Вы скачали Дневники мотылька через торрент бесплатно!!
    Комментировать посты могут только пользователи прошедшие не сложную регистрацию
    Показать сообщения:    


    Дневники мотылька через торрент
    Скачать бесплатно Дневники мотылька
    Дневники мотылька скачать торрент
    Дневники мотылька смотреть онлайн
    Cкачать фильм Дневники мотылька бесплатно
    Дневники мотылька скачать торрент в хорошем качестве
    Дневники мотылька смотреть онлайн бесплатно в хорошем качестве
    Вы не можете начинать темы
    Вы не можете отвечать на сообщения
    Вы не можете редактировать свои сообщения
    Вы не можете удалять свои сообщения
    Вы не можете голосовать в опросах
    Вы не можете прикреплять файлы к сообщениям
    Вы можете скачивать файлы