новый адрес пиратбит piratbit
Мега распродажа FORZA HORIZON 4 ULTIMATE+ВСЕ DLC+ОНЛАЙН всего за 499р. 349 руб. (супер цена). Внимание количество ограничено!!!

iTunes

1+1

iTunes

мы

iTunes

1

iTunes

Чернобыль

iTunes

Ральф против интернета

Лицензия

ПШазам

Лицензия

Игра престолов

Лицензия

30
pack

ВАЖНО

!!Акция!!

Alien_RageХит недели

RePack

Resident Evil 21

ИГРА 18+

pack

RePack

Metro:Exodus

!!Акция!!

Alien_Rage

RePack

fifa19

RePack

Assassins Creed: Odyssey

RePack

NEED FOR SPEED™ PAYBACK

3 сезон

9 сезон

Бесстыжие 9 сезон

Все сериалы

все сериалы на PB.wtf

RePack

FAR CRY 5
Ребята, катастрофически не хватает 1900р. для оплаты серверов за Октябрь (всвязи с блокировками трафик упал в 3 раза), 1-2р., выручайте.
  

Приходите завтра (Евгений Ташков) [1962, СССР, комедия, мелодрама, BDRip 1080p] pb.wtf

Приходите завтра через торрент pb.wtf

Размер: 6.92 GB | Добавлен: 7 лет 8 мес. назад | Торрент скачан:56 раз
Скачать  

19-02-2012 15:42 Приходите завтра Скачать торрент  

[font="Georgia"]Приходите завтра

Полная реставрация изображения и звука. Исходные киноматериалы подготовлены Госфильмофондом России. Покадровая цифровая реставрация изображения, ремастеринг звука и авторинг проведены объединением «Крупный план».
Страна: СССР
Студия: Одесская
Жанр: комедия, мелодрама
Год выпуска: 1962
Продолжительность: 01:36:44
Перевод: Не требуется
Cубтитры: есть

Режиссер: Евгений Ташков

В ролях: Анатолий Папанов, Екатерина Савинова, Борис Бибиков, Антонина Максимова, Юрий Горобец, Надежда Животова, Александр Ширвиндт, Юрий Белов, Александра Денисова, Борис Коковкин.

Описание: Кинокомедия о судьбе простой, талантливой девушки Фроси, приехавшей учиться в Москву из небольшого сибирского села, о том,как она добилась поступления в консерваторию...
Простая, но очень талантливая и голосистая девушка Фрося (Савинова) приезжает из сибирской глухомани в Москву к совершенно незнакомому человеку, которого знал шесть лет назад завхоз ее школы. К этому скульптору (Папанов), находящемуся в творческом кризисе от ваяния девушек с веслом, она заявляется прямо с вокзала с кучей вещей и домашних припасов, намереваясь поступить "в институт на певицу".
Релиз от:

rip by genkasper
Сэмпл
Тип релиза: BDRip 1080p
Контейнер: MKV
Видео: AVC / 1424x1080 / 8500 kbps / 23.976 fps / High@L4.1
Аудио 1: AC3 1.0 / 48 kHz / 224 kbps /16-bit
Аудио 2: DTS 5.1 / 48 kHz / 1510 kbps / 24-bit
Субтитры: русские srt
Полное имя : Prihodite.zavtra.1962.BDRip.1080p.by_genkasper.mkv
Формат : Matroska
Версия формата : Version 2
Размер файла : 6,92 Гбайт
Продолжительность : 1 ч. 36 м.
Общий поток : 10,2 Мбит/сек
Дата кодирования : UTC 2012-02-19 16:18:56
Программа кодирования : mkvmerge v5.3.0 ('I could have danced') built on Feb 9 2012 10:38:07
Библиотека кодирования : libebml v1.2.3 + libmatroska v1.3.0

Видео
Идентификатор : 1
Формат : AVC
Формат/Информация : Advanced Video Codec
Профиль формата : High@L4.1
Параметр CABAC формата : Да
Параметр ReFrames формата : 5 кадров
Идентификатор кодека : V_MPEG4/ISO/AVC
Продолжительность : 1 ч. 36 м.
Битрейт : 8500 Кбит/сек
Ширина : 1424 пикселя
Высота : 1080 пикселей
Соотношение сторон : 4:3
Частота кадров : 23,976 кадра/сек
Цветовое пространство : YUV
Субдискретизация насыщенности : 4:2:0
Битовая глубина : 8 бит
Тип развёртки : Прогрессивная
Бит/(Пиксели*Кадры) : 0.231
Размер потока : 5,61 Гбайт (81%)
Библиотека кодирования : x264 core 115 r1936 7a9e08d
Настройки программы : cabac=1 / ref=5 / deblock=1:-1:-1 / analyse=0x3:0x133 / me=umh / subme=10 / psy=1 / psy_rd=1.00:0.10 / mixed_ref=1 / me_range=24 / chroma_me=1 / trellis=2 / 8x8dct=1 / cqm=0 / deadzone=21,11 / fast_pskip=0 / chroma_qp_offset=-3 / threads=9 / sliced_threads=0 / nr=0 / decimate=1 / interlaced=0 / bluray_compat=0 / constrained_intra=0 / bframes=12 / b_pyramid=2 / b_adapt=2 / b_bias=0 / direct=3 / weightb=1 / open_gop=0 / weightp=2 / keyint=250 / keyint_min=23 / scenecut=40 / intra_refresh=0 / rc_lookahead=50 / rc=2pass / mbtree=1 / bitrate=8500 / ratetol=1.0 / qcomp=0.70 / qpmin=0 / qpmax=69 / qpstep=4 / cplxblur=20.0 / qblur=0.5 / ip_ratio=1.40 / aq=1:1.00
Язык : English
Default : Да
Forced : Нет

Аудио #1
Идентификатор : 2
Формат : AC-3
Формат/Информация : Audio Coding 3
Расширение режима : CM (complete main)
Идентификатор кодека : A_AC3
Продолжительность : 1 ч. 36 м.
Вид битрейта : Постоянный
Битрейт : 224 Кбит/сек
Каналы : 1 канал
Расположение каналов : Front: C
Частота : 48,0 КГц
Битовая глубина : 16 бит
Метод сжатия : С потерями
Размер потока : 155 Мбайт (2%)
Заголовок : mono
Язык : Russian
Default : Да
Forced : Нет

Аудио #2
Идентификатор : 3
Формат : DTS
Формат/Информация : Digital Theater Systems
Идентификатор кодека : A_DTS
Продолжительность : 1 ч. 36 м.
Вид битрейта : Постоянный
Битрейт : 1510 Кбит/сек
Каналы : 6 каналов
Расположение каналов : Front: L C R, Side: L R, LFE
Частота : 48,0 КГц
Битовая глубина : 24 бит
Метод сжатия : С потерями
Размер потока : 1,02 Гбайт (15%)
Заголовок : DTS
Язык : Russian
Default : Нет
Forced : Нет

Текст
Идентификатор : 4
Формат : UTF-8
Идентификатор кодека : S_TEXT/UTF8
Идентификатор кодека/Информация : UTF-8 Plain Text
Заголовок : srt
Язык : Russian
Default : Нет
Forced : Нет
x264 [info]: frame I:653 Avg QP:15.95 size:156682 PSNR Mean Y:48.04 U:100.00 V:100.00 Avg:49.80 Global:49.67
x264 [info]: frame P:26208 Avg QP:18.49 size: 69755 PSNR Mean Y:45.87 U:100.00 V:100.00 Avg:47.63 Global:47.50
x264 [info]: frame B:112317 Avg QP:19.86 size: 37725 PSNR Mean Y:44.58 U:100.00 V:100.00 Avg:46.34 Global:46.18
x264 [info]: consecutive B-frames: 0.8% 0.9% 3.1% 14.2% 14.5% 53.1% 6.8% 2.6% 2.6% 0.5% 0.3% 0.5% 0.1%
x264 [info]: mb I I16..4: 3.8% 86.6% 9.6%
x264 [info]: mb P I16..4: 0.7% 16.9% 1.0% P16..4: 48.7% 27.9% 3.9% 0.2% 0.1% skip: 0.5%
x264 [info]: mb B I16..4: 0.1% 2.6% 0.1% B16..8: 46.3% 14.7% 3.1% direct:12.4% skip:20.7% L0:46.3% L1:44.9% BI: 8.8%
x264 [info]: 8x8 transform intra:91.9% inter:69.7%
x264 [info]: direct mvs spatial:99.7% temporal:0.3%
x264 [info]: coded y,uvDC,uvAC intra: 93.9% 0.0% 0.0% inter: 50.9% 0.0% 0.0%
x264 [info]: i16 v,h,dc,p: 23% 15% 20% 43%
x264 [info]: i8 v,h,dc,ddl,ddr,vr,hd,vl,hu: 12% 7% 9% 9% 13% 13% 13% 11% 12%
x264 [info]: i4 v,h,dc,ddl,ddr,vr,hd,vl,hu: 11% 6% 3% 8% 16% 16% 15% 12% 12%
x264 [info]: i8c dc,h,v,p: 100% 0% 0% 0%
x264 [info]: Weighted P-Frames: Y:19.9% UV:0.0%
x264 [info]: ref P L0: 40.6% 13.2% 21.2% 11.9% 10.6% 2.5% 0.0%
x264 [info]: ref B L0: 71.3% 19.7% 7.1% 1.9%
x264 [info]: ref B L1: 90.3% 9.7%
x264 [info]: SSIM Mean Y:0.9768640 (16.357db)
x264 [info]: PSNR Mean Y:44.840 U:100.000 V:100.000 Avg:46.601 Global:46.412 kb/s:8499.97
source -> genkasper









pb.wtf



Скачать Приходите завтра через торрент http://i27.fastpic.ru/big/2012/0219/df/37391a68664229611d6ed373cdc318df.png Скачать фильм Приходите завтра через торрент бесплантно в хорошем качестве Описание: Кинокомедия о судьбе простой, талантливой девушки Фроси, приехавшей учиться в Москву из небольшого сибирского села, о том,как она ... 9.5 10 2
Info! Золотая раздача, скачанное не засчитывается.
Торрент: Зарегистрирован [2012-02-19 15:42] · скачан: 56 раз
Статус: √ проверено
Размер: 6.92 GB
Как cкачать? Как скачать Приходите завтра через торрент | qTorrent

% Раздел Тема Автор DL S | L
Кино СССР [ 4.89 GB ] Приходите завтра... [1962 СССР музыка HDTVRip 1080p от AVP Studio] AVP Studio Скачать
1 | 0
Кино СССР [ 1.09 GB ] Приходите завтра... [1962 СССР музыка HDTVRip от AVP Studio] AVP Studio Скачать
1 | 0
Кино СССР [ 1.46 GB ] Приходите завтра... [1962 СССР музыка HDTVRip-AVC от AVP Studio] AVP Studio Скачать
1 | 0
Кино СССР [ 2.91 GB ] Приходите завтра... [1962 СССР музыка HDTVRip 720p от AVP Studio] AVP Studio Скачать
1 | 0


>> Регистрируемся здесь <<






Отзывы и комментарии о схеме читаем и пишем здесь: ---> Отзывы и комментарии о схеме

Новые благодарочки в телеграм довольных пользователей:
скриншот   скриншот   скриншот   скриншот   скриншот

19-02-2012 18:10 Приходите завтра Скачать торрент  

РЕСПЕКТ!!!pb.wtf



19-02-2012 18:24 Приходите завтра Скачать торрент  

куйняpb.wtf



19-02-2012 20:52 Приходите завтра Скачать торрент  

предлагаю банить за такие комменты и оскорбление моего достоинства!pb.wtf



02-04-2012 08:39 Приходите завтра Скачать торрент  

не обращай внимания ,будь выше этого ,спасибо за фильмpb.wtf



03-05-2012 03:59 Приходите завтра Скачать торрент  

Спасибо за фильм!!!pb.wtf



01-02-2018 16:36 Приходите завтра Скачать торрент  

отлично!!!!pb.wtf



    Дорогой пользователь! Огромная просьба, поблагодарите релизера, оцените раздачу и оставьте свои комментарий, если Вы скачали Приходите завтра через торрент бесплатно! Внесите свою лепту в развитие PiratBit!
    Комментировать посты могут только пользователи прошедшие не сложную регистрацию
    Показать сообщения:    

    Приходите завтра через торрент
    Скачать бесплатно Приходите завтра
    Приходите завтра скачать торрент
    Приходите завтра смотреть онлайн
    Cкачать фильм Приходите завтра бесплатно
    Приходите завтра скачать торрент в хорошем качестве
    Приходите завтра смотреть онлайн бесплатно в хорошем качестве


    Вы не можете начинать темы
    Вы не можете отвечать на сообщения
    Вы не можете редактировать свои сообщения
    Вы не можете удалять свои сообщения
    Вы не можете голосовать в опросах
    Вы не можете прикреплять файлы к сообщениям
    Вы можете скачивать файлы