Ссылка на приватное зеркало нашего сайта всего за 1$. Внимание количество ограничено!!!

2 сезон

iTunes

1 сезон

1

2 сезон

2 сезон

iTunes

1 сезон

RePack

30

Ultimate

ВАЖНО

ИГРА 18+

pack

RePack

MK11
pack

Забери бонус

RePack

jed

!!Акция!!

Alien_Rage

RePack

fifa19

RePack

Assassins Creed: Odyssey

RePack

NEED FOR SPEED™ PAYBACK

4 сезон

9 сезон

Бесстыжие 9 сезон

Все сериалы

все сериалы на PB.wtf

RePack

FAR CRY 5
  

Кремень (Серии: 1-4 из 4) (Владимир Епифанцев, Александр Аншютц) [2012 г., боевик, криминал, детектив, DVD9, лицензия] pb.wtf

Кремень через торрент pb.wtf

Качают: 1 [ 0 KB/s ]
Размер: 7.81 GB | Добавлен: 8 лет 6 мес. назад | Торрент скачан:180 раз
Скачать  

13-05-2012 19:29 Кремень Скачать торрент  

Кремень

Год выпуска: 2012
Страна: Россия
Жанр: боевик, криминал, детектив
Продолжительность: 4 х ~00:50:00
Перевод: Оригинал
  • Режиссер: Владимир Епифанцев, Александр Аншютц
  • Продюссер: Алексей Моисеев, Давид Дишдишян, Светлана Слитюк
  • Сценарий: Михаил Шульман

В ролях: Владимир Епифанцев, Павел Климов, Анастасия Веденская, Сергей Векслер, Иван Краско, Юрий Чурсин, Сергей Мурзин, Эдуард Федашко, Сергей Бадюк, Юрий Сысоев

Описание: Приехав, в небольшой российский городок, чтобы навестить старого боевого товарища, майор краповых беретов Шаманов становится свидетелем страшных событий — местное население, простые люди, лишены прав, обесчещены, их достоинство растоптано. Шаманову остается либо пройти мимо, закрыв глаза, либо начать действовать, противопоставив себя порочной властной системе, годами оттачиваемой и набравшей смертельную силу...
  • Качество: DVD9
  • Формат: DVD Video
  • Видео кодек: MPEG2
  • Аудио кодек: AC3
  • Видео: MPEG 2, 720x576 (4:3), 25.000 fps, 8 000 Kbps (0.442 bit/pixel)
  • Аудио: AC-3, 48.0 KHz, 6 ch, 448 Kbps, CBR

Скриншоты меню
скриншот   скриншот   скриншот  

Скриншоты
скриншот   скриншот   скриншот   скриншот  

Код:

Title: Kremen.2012.O.DVD.IRONCLUB
Size: 7.81 Gb ( 8 192 428,00 KBytes ) - DVD-9
Enabled regions: 1, 2, 3, 4, 5, 6, 7, 8

VTS_01 :
  Play Length: 00:00:05
  Video: PAL 4:3 (720x576) VBR

VTS_02 :
  Play Length: 00:00:16
  Video: PAL 16:9 (720x576) VBR, Auto Letterboxed
  Audio:
      Not specified, AC3, 2/0 (L,R) ch, 192 kbps, Delay 0 mSec


VTS_03 :
  Play Length: 00:00:07
  Video: PAL 16:9 (720x576) VBR, Auto Letterboxed
  Audio:
      Not specified, AC3, 2/0 (L,R) ch, 192 kbps, Delay 0 mSec


VTS_04 :
  Play Length: 00:51:12
  Video: PAL 16:9 (720x576) VBR, Auto Letterboxed
  Audio:
      Russian (Dolby AC3, 6 ch)

VTS_05 :
  Play Length: 00:49:10
  Video: PAL 16:9 (720x576) VBR, Auto Letterboxed
  Audio:
      Russian (Dolby AC3, 6 ch)

VTS_06 :
  Play Length: 00:48:10
  Video: PAL 16:9 (720x576) VBR, Auto Letterboxed
  Audio:
      Russian (Dolby AC3, 6 ch)

VTS_07 :
  Play Length: 00:49:05
  Video: PAL 16:9 (720x576) VBR, Auto Letterboxed
  Audio:
      Russian (Dolby AC3, 6 ch)

* Menus Information *

VIDEO_TS Menu
Video:
      PAL 16:9 (720x576) VBR
      Auto Pan&Scan, Auto Letterboxed
English Language Unit :
      Title Menu

VTS_01 Menu
Video:
      PAL 16:9 (720x576) VBR
      Auto Letterboxed
Audio:
      Not specified (Dolby AC3, 2 ch)
English Language Unit :
      Root Menu

VTS_02 Menu
Video:
      PAL 4:3 (720x576) VBR
English Language Unit :
      Root Menu

VTS_03 Menu
Video:
      PAL 4:3 (720x576) VBR
English Language Unit :
      Root Menu

VTS_04 Menu
Video:
      PAL 4:3 (720x576) VBR
English Language Unit :
      Root Menu

VTS_05 Menu
Video:
      PAL 4:3 (720x576) VBR
English Language Unit :
      Root Menu

VTS_06 Menu
Video:
      PAL 4:3 (720x576) VBR
English Language Unit :
      Root Menu

VTS_07 Menu
Video:
      PAL 4:3 (720x576) VBR
English Language Unit :
      Root Menu


Код:

Общее
Полное имя                               : E:\Kremen.2012.O.DVD.IRONCLUB\VIDEO_TS\VTS_04_1.VOB
Формат                                   : MPEG-PS
Размер файла                             : 1024 Мбайт
Продолжительность                        : 27 м.
Режим общего битрейта                    : Переменный
Общий поток                              : 5136 Кбит/сек

Видео
Идентификатор                            : 224 (0xE0)
Формат                                   : MPEG Video
Версия формата                           : Version 2
Профиль формата                          : Main@Main
Параметр BVOP формата                    : Да
Параметр матрицы формата                 : Выборочная
Продолжительность                        : 27 м.
Вид битрейта                             : Переменный
Битрейт                                  : 4586 Кбит/сек
Максимальный битрейт                     : 8000 Кбит/сек
Ширина                                   : 720 пикселей
Высота                                   : 576 пикселей
Соотношение сторон                       : 4:3
Частота кадров                           : 25,000 кадров/сек
Стандарт вещания                         : PAL
Цветовое пространство                    : YUV
Субдискретизация насыщенности            : 4:2:0
Битовая глубина                          : 8 бит
Тип развёртки                            : Чересстрочная
Порядок развёртки                        : Нижнее поле первое
Метод сжатия                             : С потерями
Бит/(Пиксели*Кадры)                      : 0.442
Размер потока                            : 914 Мбайт (89%)

Аудио
Идентификатор                            : 189 (0xBD)-128 (0x80)
Формат                                   : AC-3
Формат/Информация                        : Audio Coding 3
Расширение режима                        : CM (complete main)
Параметр Endianness формата              : Big
Режим смешивания                         : DVD-Video
Продолжительность                        : 27 м.
Вид битрейта                             : Постоянный
Битрейт                                  : 448 Кбит/сек
Каналы                                   : 6 каналов
Расположение каналов                     : Front: L C R, Side: L R, LFE
Частота                                  : 48,0 КГц
Битовая глубина                          : 16 бит
Метод сжатия                             : С потерями
Размер потока                            : 89,3 Мбайт (9%)

Меню

pb.wtf



Скачать Кремень через торрент http://pic.kartinco.top/images/2000/krlsxbah98.png Скачать фильм Кремень через торрент бесплантно в хорошем качестве Описание: Приехав, в небольшой российский городок, чтобы навестить старого боевого товарища, майор краповых беретов Шаманов становится ... 9.6 10 11
Info! Золотая раздача, скачанное не засчитывается.
Торрент: Зарегистрирован [2012-05-13 19:29] · скачан: 180 раз
Статус: √ проверено
Размер: 7.81 GB
Как cкачать? Как скачать Кремень через торрент | qTorrent

% Раздел Тема Автор DL S | L
Наши сериалы [ 10.79 GB ] Кремень / Серии: 1-4 из 4 [2012 HDTV 1080i] bober100 Скачать
1 | 0
Наши сериалы [ 7.8 GB ] Кремень. Освобождение / Серии: 1-4 из 4 [2012 DVD9] R5 voovaz Скачать
1 | 0
Фильмы 2006-2008 [ 1.37 GB ] Кремень [2007 DVDRip] VintMosina Скачать
1 | 0
Наши сериалы [ 2.02 GB ] Кремень. Освобождение [2013 SATRip] -=Cherry=- Скачать
1 | 0
Наши сериалы [ 2.74 GB ] Кремень [2012 DVDRip лицензия] Twi7ter Скачать
1 | 1
Наши фильмы, до 2010 [ 1.46 GB ] Кремень [2007 ьный фильм DVDRip] Ragazzo Скачать
1 | 0

28-11-2019 20:33  

Отключить всю рекламу на сайте

13-05-2012 19:53 Кремень Скачать торрент  

ты меня радуешь братищ последнее время спасибо)pb.wtf



14-05-2012 09:38 Кремень Скачать торрент  

поддержу раздачу)pb.wtf



    Дорогой пользователь! Огромная просьба, поблагодарите релизера, оцените раздачу и оставьте свои комментарий, если Вы скачали Кремень через торрент бесплатно! Внесите свою лепту в развитие PiratBit!
    Комментировать посты могут только пользователи прошедшие не сложную регистрацию
    Показать сообщения:    

    Кремень через торрент
    Скачать бесплатно Кремень
    Кремень скачать торрент
    Кремень смотреть онлайн
    Cкачать фильм Кремень бесплатно
    Кремень скачать торрент в хорошем качестве
    Кремень смотреть онлайн бесплатно в хорошем качестве


    Вы не можете начинать темы
    Вы не можете отвечать на сообщения
    Вы не можете редактировать свои сообщения
    Вы не можете удалять свои сообщения
    Вы не можете голосовать в опросах
    Вы не можете прикреплять файлы к сообщениям
    Вы можете скачивать файлы