Доктор Стрэндж

Лицензия

Добыча

MVO

Дом дракона

1 сезон

Тор

Лицензия

Мэверик

Лицензия

Там, где раки поют

MVO

Властелин колец

1 сезон

Ultimate

pack

Рекомендуем

30

Repack

ВАЖНО

ВАЖНО

Ghostwire

RePack

jed

RePack

nioh2

RePack

RDR2

RePack

NEED FOR SPEED™ PAYBACK

RePack

скачать торрент

Кинопоиск HD

Острые козырьки 6 сезон

6 сезон

FAR CRY 6

RePack

скачать торрент

Лицензия

скачать торрент

MVO

1

1 сезон

скачать торрент

1 сезон

скачать торрент

Лицензия

  

Железная леди / The Iron Lady (Филлида Ллойд) [2011 г., драма, биография, HDRip, DUB (лицензия)]

Железная леди через торрент pb.wtf

Размер: 1.45 GB | Добавлен: 10 лет назад | Торрент скачан:293 раза
Смотреть онлайн | Скачать   

26-05-2012 11:52 Железная леди Скачать торрент  

Железная леди / The Iron Lady

Год выпуска: 2011
Страна: Франция
Жанр: драма, биография
Продолжительность: 01:44:58
Перевод: Дубляж (Лицензия)

Режиссер: Филлида Ллойд
Продюссер: Дамиан Джонс, Франсуа Ивернель, Адам Кулик
Сценарий: Эби Морган

Бюджет: $13 000 000
Премьера в мире: 26 декабря 2011

IMDB 6.40 (25 131)


В ролях: Мэрил Стрип, Джим Броудбент, Сьюзэн Браун, Элис Да Кунья, Фиби Уоллер-Бридж, Айэйн Глен, Александра Роач, Виктория Бьюик, Эмма Дьюхерст, Оливия Колман, Даниил Эльдаров, Дмитрий Курта, Илья Бледный, Владимир Антоник, Пётр Иващенко

Описание: События картины развернутся в 1982 году. Тогда премьер-министр Великобритании Маргарет Тэтчер пыталась спасти свою карьеру накануне Фолклендской войны.

Качество: HDRip
Формат: AVI
Видео кодек: XviD
Аудио кодек: AC3
Видео: 1 590 Kbps, 720 pixels х 304 pixels, 23.976 fps, Bits/Pixel : 0.303
Аудио#1: 384 Kbps, 6 channels, 48.0 KHz




Format : AVI
Format/Info : Audio Video Interleave
File size : 1.45 GiB
Duration : 1h 44mn
Overall bit rate : 1 983 Kbps
Writing application : VirtualDubModRus 1.5.10.2 (build 2542/release)

Video
ID : 0
Format : MPEG-4 Visual
Format profile : Advanced [email protected]
Format settings, BVOP : Yes
Format settings, QPel : No
Format settings, GMC : No warppoints
Format settings, Matrix : Custom
Codec ID : XVID
Codec ID/Hint : XviD
Duration : 1h 44mn
Bit rate : 1 590 Kbps
Width : 720 pixels
Height : 304 pixels
Display aspect ratio : 2.35:1
Frame rate : 23.976 fps
Color space : YUV
Chroma subsampling : 4:2:0
Bit depth : 8 bits
Scan type : Progressive
Bits/(Pixel*Frame) : 0.303
Stream size : 1.17 GiB (80%)
Writing library : XviD 64

Audio
ID : 1
Format : AC-3
Format/Info : Audio Coding 3
Mode extension : CM (complete main)
Codec ID : 2000
Duration : 1h 44mn
Bit rate mode : Constant
Bit rate : 384 Kbps
Channel(s) : 6 channels
Channel positions : Front: L C R, Side: L R, LFE
Sampling rate : 48.0 KHz
Bit depth : 16 bits
Stream size : 288 MiB (19%)
Alignment : Split accross interleaves
Interleave, duration : 42 ms (1.00 video frame)
Interleave, preload duration : 500 ms



Скачать Железная леди через торрент https://pic1.kartinco.top/images/2000/z2w1p6mubj.jpg Скачать, смотреть онлайн Железная леди бесплантно в хорошем качестве Описание: События картины развернутся в 1982 году. Тогда премьер-министр Великобритании Маргарет Тэтчер пыталась спасти свою карьеру ... 10 10 4
Info! Золотая раздача, скачанное не засчитывается.
Торрент: Зарегистрирован [2012-05-26 11:52] · скачан: 293 раз
Статус: √ проверено
Размер: 1.45 GB
Как cкачать? Как скачать Железная леди через торрент | UTorrent

% Раздел Тема Автор DL S | L
Фильмы [HD 720p, 1080p] (Хороший звук DUB, MVO) [ 5.76 GB ] Железная леди / The Iron Lady | DUB + Оригинал | 720p ~Relizer~ Скачать
1 | 0
Фильмы (DVD фильмы) [ 6.12 GB ] Железная леди / The Iron Lady | | Железная леди / The Iron Lady (Филлида Ллойд / Phyllida Lloyd voovaz Скачать
1 | 0
Фильмы с авторской озвучкой [ 2.06 GB ] Железная леди / The Iron Lady | AVO | HDRip, AVO (одноголосый shuller Скачать
1 | 0

28-11-2019 20:33  


Отключить вcю реклaмy на сайте, в т.ч. и в плеере онлайн просмотра!

05-02-2013 08:53 Железная леди Скачать торрент  

Пожалуйста, встаньте на раздачу!



    Дорогой пользователь! Огромная просьба, поблагодарите релизера, оцените раздачу и оставьте свои комментарий, если Вы скачали Железная леди через торрент бесплатно!!
    Комментировать посты могут только пользователи прошедшие не сложную регистрацию
    Показать сообщения:    


    Железная леди через торрент
    Скачать бесплатно Железная леди
    Железная леди скачать торрент
    Железная леди смотреть онлайн
    Cкачать фильм Железная леди бесплатно
    Железная леди скачать торрент в хорошем качестве
    Железная леди смотреть онлайн бесплатно в хорошем качестве
    Вы не можете начинать темы
    Вы не можете отвечать на сообщения
    Вы не можете редактировать свои сообщения
    Вы не можете удалять свои сообщения
    Вы не можете голосовать в опросах
    Вы не можете прикреплять файлы к сообщениям
    Вы можете скачивать файлы