Всегда рабочее зеркало без VPN и Proxy просто перед .vidak.icu напиши любое слово или цифру, Пример http://yv7b.vidak.icu

MVO

MVO

1 сезон

1

1 сезон

iTunes

1 сезон

13

1 сезон

Deluxe

pack

Рекомендуем

Repack

30

ВАЖНО

RePack

MK11

RePack

jed

RePack

fifa19

RePack

RDR2

RePack

NEED FOR SPEED™ PAYBACK

Кинопоиск HD

6 сезон

 Острые козырьки 6 сезон

Все сериалы

все сериалы на PB.wtf

RePack

FAR CRY 5
  
Magnet ссылка

Милый друг / Bel Ami (Деклан Доннеллан, Ник Ормерод) [2012 г., драма, DVDRip, DUB (лицензия)] pb.wtf

Милый друг через торрент pb.wtf

Размер: 1.46 GB | Добавлен: 10 лет назад | Торрент скачан:1963 раза
Смотреть онлайн Милый друг | Скачать    Ребята, помогите собрать деньги на оплату серверов!!!

17-04-2012 14:44 Милый друг Скачать торрент  

Милый друг / Bel Ami

Год выпуска: 2012
Страна: Франция
Жанр: драма
Продолжительность: 01:38:14
Перевод: Дубляж (Лицензия)

Режиссер: Деклан Доннеллан, Ник Ормерод
Продюссер: Уберто Пазолини, Лори Борг, Саймон Фуллер
Сценарий: Рэйчел Бенетт, Ги де Мопассан

Бюджет: $2 778 281
Премьера в мире: 17 февраля 2012

R-лицам до 17 лет обязательно присутствие взрослого
Мировой рейтинг IMDB 5.80 (1 600)


В ролях: Роберт Паттинсон, Кристина Риччи, Наталия Тена, Ума Турман, Кристин Скотт Томас, Холли Грэйнджер, Колм Мини, Филип Гленистер, Пип Торренс, Джеймс Лэнс, Александр Гаврилин, Анастасия Нестеренко, Алексей Колган

Описание: «Соблазн. Обольщение. Страсть.»
Жоржа влекут деньги, секс и Влacть. Обольстительная внешность и железные нервы карточного игрока, обворожительные манеры и когти хищника — и Париж, город порока и страсти, лежит у его ног...

Качество: DVDRip
Формат: AVI
Видео кодек: XviD
Аудио кодек: AC3
Видео: 1 673 Kbps, 720 pixels х 288 pixels, 25.000 fps, Bits/Pixel : 0.323
Аудио#1: 448 Kbps, 6 channels, 48.0 KHz





Format : AVI
Format/Info : Audio Video Interleave
File size : 1.46 GiB
Duration : 1h 38mn
Overall bit rate : 2 131 Kbps
Movie name : Drug1400
Director : -=IronClub.tv=-
Writing application : VirtualDubMod 1.5.10.2 (build 2540/release)

Video
ID : 0
Format : MPEG-4 Visual
Format profile : Advanced [email protected]
Format settings, BVOP : 2
Format settings, QPel : No
Format settings, GMC : No warppoints
Format settings, Matrix : Custom
Codec ID : XVID
Codec ID/Hint : XviD
Duration : 1h 38mn
Bit rate : 1 673 Kbps
Width : 720 pixels
Height : 288 pixels
Display aspect ratio : 2.500
Frame rate : 25.000 fps
Color space : YUV
Chroma subsampling : 4:2:0
Bit depth : 8 bits
Scan type : Progressive
Compression mode : Lossy
Bits/(Pixel*Frame) : 0.323
Stream size : 1.15 GiB (79%)
Writing library : XviD 1.2.1 (UTC 2008-12-04)

Audio
ID : 1
Format : AC-3
Format/Info : Audio Coding 3
Mode extension : CM (complete main)
Codec ID : 2000
Duration : 1h 38mn
Bit rate mode : Constant
Bit rate : 448 Kbps
Channel(s) : 6 channels
Channel positions : Front: L C R, Side: L R, LFE
Sampling rate : 48.0 KHz
Bit depth : 16 bits
Compression mode : Lossy
Stream size : 315 MiB (21%)
Alignment : Split accross interleaves
Interleave, duration : 40 ms (1.00 video frame)
Interleave, preload duration : 500 ms


http://pb.wtf/viewtopic.php?p=406718#406718
pb.wtf



Скачать Милый друг через торрент http://i37.fastpic.ru/big/2012/0417/95/df923f18748ef4a04c649068e91f6c95.png Скачать, смотреть онлайн Милый друг бесплантно в хорошем качестве Описание: «Соблазн. Обольщение. Страсть.»Жоржа влекут деньги, секс и Влacть. Обольстительная внешность и железные нервы карточного игрока, ... 7.5 10 2
Info! Золотая раздача, скачанное не засчитывается.
Торрент: Зарегистрирован [2012-04-17 14:44] · скачан: 1 963 раз
Статус: √ проверено
Размер: 1.46 GB
Как cкачать? Как скачать Милый друг через торрент | UTorrent

% Раздел Тема Автор DL S | L
Классические порно фильмы [ 1.56 GB ] Милый друг / Bel Ami [1975 Feature Classic Straight Retro. DVDRip Оригинал] Magnat Скачать
1 | 0
Фильмы 2012 [ 742 MB ] Милый друг / Bel Ami [2012 HDRip DUB ] MIXX_ON Скачать
1 | 0
Фильмы [HD 720p, 1080p] (Хороший звук DUB, MVO) [ 4.14 GB ] Милый друг / Bel Ami [2012 BDRip DUB ] ~Relizer~ Скачать
1 | 0
Фильмы (DVD фильмы) [ 4.35 GB ] Милый друг / Bel Ami [2012 DVD5] R5 voovaz Скачать
1 | 0

28-11-2019 20:33  

Отключить вcю реклaмy на сайте

17-04-2012 15:27 Милый друг Скачать торрент  

Читал когда-то...Спасибо !pb.wtf



17-04-2012 16:10 Милый друг Скачать торрент  

Удивила обложка. Хоть бы подписали под артистами их именами)pb.wtf



18-04-2012 05:56 Милый друг Скачать торрент  

старый фильм был лучшеpb.wtf



21-04-2012 07:18 Милый друг Скачать торрент  

кэп
Спасибо!Мне фильм понравился!!!pb.wtf



16-06-2012 11:19 Милый друг Скачать торрент  

Чё то не очень, наверное просто не люблю драмыpb.wtf



07-12-2015 22:55 Милый друг Скачать торрент  

Слеза боли,меня заставили смотреть это (((pb.wtf



    Дорогой пользователь! Огромная просьба, поблагодарите релизера, оцените раздачу и оставьте свои комментарий, если Вы скачали Милый друг через торрент бесплатно!
    Комментировать посты могут только пользователи прошедшие не сложную регистрацию
    Показать сообщения:    

    Милый друг через торрент
    Скачать бесплатно Милый друг
    Милый друг скачать торрент
    Милый друг смотреть онлайн
    Cкачать фильм Милый друг бесплатно
    Милый друг скачать торрент в хорошем качестве
    Милый друг смотреть онлайн бесплатно в хорошем качестве


    Вы не можете начинать темы
    Вы не можете отвечать на сообщения
    Вы не можете редактировать свои сообщения
    Вы не можете удалять свои сообщения
    Вы не можете голосовать в опросах
    Вы не можете прикреплять файлы к сообщениям
    Вы можете скачивать файлы