новый адрес пиратбит piratbit
Мега распродажа FORZA HORIZON 4 ULTIMATE+ВСЕ DLC+ОНЛАЙН всего за 499р. 349 руб. (супер цена). Внимание количество ограничено!!!

iTunes

1+1

iTunes

мы

iTunes

1

iTunes

Чернобыль

iTunes

Ральф против интернета

Лицензия

ПШазам

Лицензия

Игра престолов

Лицензия

30
pack

ВАЖНО

!!Акция!!

Alien_RageХит недели

RePack

Resident Evil 21

ИГРА 18+

pack

RePack

Metro:Exodus

!!Акция!!

Alien_Rage

RePack

fifa19

RePack

Assassins Creed: Odyssey

RePack

NEED FOR SPEED™ PAYBACK

3 сезон

9 сезон

Бесстыжие 9 сезон

Все сериалы

все сериалы на PB.wtf

RePack

FAR CRY 5
Ребята, катастрофически не хватает 1900р. для оплаты серверов за Октябрь (всвязи с блокировками трафик упал в 3 раза), 1-2р., выручайте.
  

Сталинград[Полная версия]/ Stalingrad [UNRATED] (Йозеф Вильсмайер) [1992 г., Исторический,Военный,Драма,Боевик, HDTVRip, Профессиональный + Оригинал(Отдельно)] pb.wtf

Сталинград через торрент pb.wtf

Размер: 2.18 GB | Добавлен: 7 лет 4 мес. назад | Торрент скачан:479 раз
Скачать  

18-06-2012 14:26 Сталинград Скачать торрент  

Сталинград[Полная версия] / Stalingrad[UNRATED]

Год выпуска: 1992
Страна: Германия
Жанр: Исторический,Военный,Драма,Боевик
Продолжительность: 02:19:35
Перевод: Профессиональный(двухголосый)+ Оригинал(Отдельно)
Тип релиза: Лицензия

Режиссер: Йозеф Вильсмайер
Продюссер: Марк Дэймон, Ханно Хут, Michael Krohne
Сценарий: Юрген Бюшер, Иоханнес Хайде, Йозеф Вильсмайер

Бюджет: DEM 20 000 000
Премьера в мире: 21 января 1993





В ролях: Доминик Хорвиц, Йохен Никель, Себастьян Рудольф, Дана Ваврова, Мартин Бенрат, Сильвестр Грот, Карел Гержманек, Хайнц Эмигхольц, Фердинанд Шустер

Описание: «Они сражались в аду....»

Зима 1942 года. Шестая армия вермахта сражается в разрушенном до основания Сталинграде. Взвод элитных немецких солдат, в первой же битве потерявший больше половины личного состава, ведет отчаянную борьбу за выживание.
Свист пуль и рев «катюш», голод и холод доводят их до грани безумия. Уже почти ничего не удерживает солдат на тонкой линии между жизнью и смертью. После всего, что они видели, после утраты всех идеалов призыв фюрера «стоять до конца» приобретает для них совсем другое, гораздо более страшное значение…
Единственный художественный фильм о войне, в котором показано, как немцы подбивали советские танки с помощью кумулятивных гранат Haft-Hohlladung 3.

Превосходная режиссура. Колоритные персонажи. Никакого пафоса. Никаких стереотипов. Немцы тут не машины для убийств с квадратными челюстями, а такие же люди, как и мы (не все, конечно же, но большинство). Русские не бородатые идиоты в ушанках. И они вполне прилично говорят по-русски! Вот чудеса! Да они ещё и не называют друг друга «Николай», «Иван» и «Василий». У этих имён ведь есть «уменьшительно-ласкательные» варианты: Коля, Ваня, Вася. Хорошо, что те, кто делали этот фильм, знают это.

Доп. информация: Субтитры: русские (на места без перевода), русские, английские (полные, внешние, srt)

Качество: HDTVRip
Формат: AVI
Видео кодек: XviD
Аудио кодек: MP3
Видео: 704x384 (1.83:1), 25 fps, XviD build 65,1866 Кбит/сек
Аудио#1: 48 kHz,MPEG Layer 3, 2 ch, ~192.00 kbit/s
Аудио#2: 48 kHz,MPEG Layer 3, 2 ch, ~192.00 kbit/s Оригинал (Немецкий)















Общее
Полное имя : C:\Закачки\Stalingrad.1993.HDTVRip\Stalingrad.1993.HDTVRip..avi
Формат : AVI
Формат/Информация : Audio Video Interleave
Профиль формата : OpenDML
Размер файла : 2,18 Гбайт
Продолжительность : 2 ч. 17 м.
Общий поток : 2268 Кбит/сек
Программа кодирования : VirtualDubMod 1.5.10.2 (build 2540/release)
Библиотека кодирования : VirtualDubMod build 2540/release

Видео
Идентификатор : 0
Формат : MPEG-4 Visual
Профиль формата : Advanced Simple@L5
Параметр BVOP формата : 2
Параметр QPel формата : Нет
Параметр GMC формата : Без точки перехода
Параметр матрицы формата : Выборочная
Идентификатор кодека : XVID
Идентификатор кодека/Подсказка : XviD
Продолжительность : 2 ч. 17 м.
Битрейт : 1866 Кбит/сек
Ширина : 704 пикселя
Высота : 384 пикселя
Соотношение сторон : 1,85:1
Частота кадров : 25,000 кадров/сек
Цветовое пространство : YUV
Субдискретизация насыщенности : 4:2:0
Битовая глубина : 8 бит
Тип развёртки : Прогрессивная
Метод сжатия : С потерями
Бит/(Пиксели*Кадры) : 0.276
Размер потока : 1,80 Гбайт (82%)
Библиотека кодирования : XviD 65

Аудио #1
Идентификатор : 1
Формат : AC-3
Формат/Информация : Audio Coding 3
Расширение режима : CM (complete main)
Параметр Endianness формата : Big
Идентификатор кодека : 2000
Продолжительность : 2 ч. 17 м.
Вид битрейта : Постоянный
Битрейт : 192 Кбит/сек
Каналы : 2 канала
Расположение каналов : Front: L R
Частота : 48,0 КГц
Битовая глубина : 16 бит
Метод сжатия : С потерями
Размер потока : 189 Мбайт (8%)
Выравнивание : Разделение по промежуткам
Продолжительность промежутка : 40 мс. (1,00 видеокадр)
Время предзагрузки промежутка : 500 мс.

Аудио #2
Идентификатор : 2
Формат : AC-3
Формат/Информация : Audio Coding 3
Расширение режима : CM (complete main)
Параметр Endianness формата : Big
Идентификатор кодека : 2000
Продолжительность : 2 ч. 17 м.
Вид битрейта : Постоянный
Битрейт : 192 Кбит/сек
Каналы : 2 канала
Расположение каналов : Front: L R
Частота : 48,0 КГц
Битовая глубина : 16 бит
Метод сжатия : С потерями
Размер потока : 189 Мбайт (8%)
Выравнивание : Разделение по промежуткам
Продолжительность промежутка : 40 мс. (1,00 видеокадр)
Время предзагрузки промежутка : 500 мс.

pb.wtf



Скачать Сталинград через торрент http://i39.fastpic.ru/big/2012/0615/29/0d440e77d4cf9529f7920c1a0d3de229.png Скачать фильм Сталинград[Полная версия]через торрент бесплантно в хорошем качестве Описание: «Они сражались в аду....»Зима 1942 года. Шестая армия вермахта сражается в разрушенном до основания Сталинграде. Взвод элитных ... 9.1 10 14
Info! Золотая раздача, скачанное не засчитывается.
Торрент: Зарегистрирован [2012-06-18 14:26] · скачан: 479 раз
Статус: √ проверено
Размер: 2.18 GB
Как cкачать? Как скачать Сталинград через торрент | qTorrent

% Раздел Тема Автор DL S | L
Старые игры [ 1.11 GB ] Сталинград [RePack RUS] by RUSJATINA RUSJATINA Скачать
2 | 0
Документальные фильмы и телепередачи [ 857 MB ] Сталинград. Мы еще живы или нет? [2018 Документальный SATRip] Armstrong Скачать
1 | 0
Фильмы [HD 720p, 1080p] (Хороший звук DUB, MVO) [ 9.86 GB ] Сталинград / Stalingrad [1993 военный BDRip 720p] DVO + AVO + Original ger + Sub rus eng -Lexx- Скачать
1 | 0
Наши фильмы (HD, WEB-DL 720p, 1080p) [ 12.8 GB ] Сталинград [2013 Военный BDRip 1080p ] лисяра Скачать
1 | 0
Наши фильмы (HD, WEB-DL 720p, 1080p) [ 5.37 GB ] Сталинград [2013 военный BDRip 720p] [] potroks Скачать
1 | 0
Наши фильмы (Blu-ray, BD-Remux, HDDVD) [ 38.84 GB ] Сталинград [2013 военный Blu-ray EUR] Russian Mafia Скачать
1 | 0
Наши новые фильмы 2013 [ 1.46 GB ] Сталинград [2013 военный HDRip][] MihailHD Скачать
1 | 0


Последний раз редактировалось: vadson993 (2012-06-18 14:48), всего редактировалось 1 раз


>> Регистрируемся здесь <<






Отзывы и комментарии о схеме читаем и пишем здесь: ---> Отзывы и комментарии о схеме

Новые благодарочки в телеграм довольных пользователей:
скриншот   скриншот   скриншот   скриншот   скриншот

18-06-2012 14:44 Сталинград Скачать торрент  

vadson993
У Вас информация по Видео, не сходится с данными MediaInfo, в частности битрейт видео. Уточните, где истена.pb.wtf



18-06-2012 16:04 Сталинград Скачать торрент  

Фильм так себе. Йозеф Вильсмайер, похоже, снимал это кинец по учебникам истории.pb.wtf



19-07-2012 17:03 Сталинград Скачать торрент  

Почему то часть фильма без перевода.pb.wtf



31-08-2012 15:32 Сталинград Скачать торрент  

Дайте скорость плиз(((pb.wtf



    Дорогой пользователь! Огромная просьба, поблагодарите релизера, оцените раздачу и оставьте свои комментарий, если Вы скачали Сталинград через торрент бесплатно! Внесите свою лепту в развитие PiratBit!
    Комментировать посты могут только пользователи прошедшие не сложную регистрацию
    Показать сообщения:    

    Сталинград через торрент
    Скачать бесплатно Сталинград
    Сталинград скачать торрент
    Сталинград смотреть онлайн
    Cкачать фильм Сталинград бесплатно
    Сталинград скачать торрент в хорошем качестве
    Сталинград смотреть онлайн бесплатно в хорошем качестве


    Вы не можете начинать темы
    Вы не можете отвечать на сообщения
    Вы не можете редактировать свои сообщения
    Вы не можете удалять свои сообщения
    Вы не можете голосовать в опросах
    Вы не можете прикреплять файлы к сообщениям
    Вы можете скачивать файлы