Доктор Стрэндж

Лицензия

Добыча

MVO

Дом дракона

1 сезон

Тор

Лицензия

Мэверик

Лицензия

Там, где раки поют

MVO

Властелин колец

1 сезон

Ultimate

pack

Рекомендуем

30

Repack

ВАЖНО

ВАЖНО

Ghostwire

RePack

jed

RePack

nioh2

RePack

RDR2

RePack

NEED FOR SPEED™ PAYBACK

RePack

скачать торрент

Кинопоиск HD

Острые козырьки 6 сезон

6 сезон

FAR CRY 6

RePack

скачать торрент

Лицензия

скачать торрент

MVO

1

1 сезон

скачать торрент

1 сезон

скачать торрент

Лицензия

  

Роза / Roza (Войчех Смажовски) [2011 г., Драма, военный, история, HDRip, VO]

Роза через торрент pb.wtf

Размер: 1.37 GB | Добавлен: 10 лет назад | Торрент скачан:52 раза
Смотреть онлайн | Скачать   

05-08-2012 07:03 Роза Скачать торрент  

Роза / Roza

Год выпуска: 2011
Страна: Польша
Жанр: Драма, военный, история
Продолжительность: 01:37:31
Перевод: Любительский (одноголосый)

Режиссер: Войчех Смажовски

Премьера в мире: 9 июня 2011,

В ролях: Марцин Дорочинский, Кинга Прейс, Мариан Дзендзель, Эдвард Линде-Любашенко, Эрик Любош, Лех Дыблик, Шимон Бобровски, Анджей Конопка, Роберт Вабих

Описание:
Лето, 1945 год, конец Второй Мировой Войны. Тадеуш, польский солдат, у которого война забрала всё, попадает на Мазуры. Находит вдову немецкого солдата, смерти которого был свидетелем. Вдова Роза, проживающая сама в большом доме, принимает Тадеуша холодно, но разрешает переночевать. Со временем, Тадеуш узнаёт больше о жизни Розы... Разминировав огород и познакомившись с другими жителями, пытается помочь поднять хозяйство, хочет покончить с войной и жить жизнью обычного человека. Защищая Розу от жестокого беспредела, Тадеуш сам становиться жертвой бандитов.

Качество: HDRip
Формат: AVI
Видео кодек: XviD
Аудио кодек: MP3
Видео: XviD, 720x304, 24 fps, ~1875 Kbit/s
Аудио#1: MP3 , 48000 Hz, 2 канала, 128 kbit/s

Общее
Полное имя : C:\Justlan\Роза\Roza.avi
Формат : AVI
Формат/Информация : Audio Video Interleave
Размер файла : 1,37 Гбайт
Продолжительность : 1 ч. 37 м.
Общий поток : 2013 Кбит/сек
Программа кодирования : VirtualDubMod 1.5.10.2 (build 2540/release)
Библиотека кодирования : VirtualDubMod build 2540/release

Видео
Идентификатор : 0
Формат : MPEG-4 Visual
Профиль формата : Advanced [email protected]
Параметр BVOP формата : 2
Параметр QPel формата : Нет
Параметр GMC формата : Без точки перехода
Параметр матрицы формата : Default (MPEG)
Идентификатор кодека : XVID
Идентификатор кодека/Подсказка : XviD
Продолжительность : 1 ч. 37 м.
Битрейт : 1876 Кбит/сек
Ширина : 720 пикселей
Высота : 304 пикселя
Соотношение сторон : 2,35:1
Частота кадров : 24,000 кадра/сек
Цветовое пространство : YUV
Субдискретизация насыщенности : 4:2:0
Битовая глубина : 8 бит
Тип развёртки : Прогрессивная
Метод сжатия : С потерями
Бит/(Пиксели*Кадры) : 0.357
Размер потока : 1,28 Гбайт (93%)
Библиотека кодирования : XviD 1.2.1 (UTC 2008-12-04)

Аудио
Идентификатор : 1
Формат : MPEG Audio
Версия формата : Version 1
Профиль формата : Layer 3
Режим : Joint stereo
Расширение режима : MS Stereo
Идентификатор кодека : 55
Идентификатор кодека/Подсказка : MP3
Продолжительность : 1 ч. 37 м.
Вид битрейта : Постоянный
Битрейт : 128 Кбит/сек
Каналы : 2 канала
Частота : 44,1 КГц
Метод сжатия : С потерями
Размер потока : 89,3 Мбайт (6%)
Выравнивание : Разделение по промежуткам
Продолжительность промежутка : 42 мс. (1,00 видеокадр)
Время предзагрузки промежутка : 500 мс.




Скачать Роза через торрент http://img835./img835/6834/posterxn.jpg Скачать, смотреть онлайн Роза бесплантно в хорошем качестве Описание: Лето, 1945 год, конец Второй Мировой Войны. Тадеуш, польский солдат, у которого война забрала всё, попадает на Мазуры. Находит ... 4.3 10 6
Info! Золотая раздача, скачанное не засчитывается.
Торрент: Зарегистрирован [2012-08-05 07:03] · скачан: 52 раз
Статус: T временная
Размер: 1.37 GB
Как cкачать? Как скачать Роза через торрент | UTorrent

28-11-2019 20:33  


Отключить вcю реклaмy на сайте, в т.ч. и в плеере онлайн просмотра!

    Дорогой пользователь! Огромная просьба, поблагодарите релизера, оцените раздачу и оставьте свои комментарий, если Вы скачали Роза через торрент бесплатно!!
    Комментировать посты могут только пользователи прошедшие не сложную регистрацию
    Показать сообщения:    


    Роза через торрент
    Скачать бесплатно Роза
    Роза скачать торрент
    Роза смотреть онлайн
    Cкачать фильм Роза бесплатно
    Роза скачать торрент в хорошем качестве
    Роза смотреть онлайн бесплатно в хорошем качестве
    Вы не можете начинать темы
    Вы не можете отвечать на сообщения
    Вы не можете редактировать свои сообщения
    Вы не можете удалять свои сообщения
    Вы не можете голосовать в опросах
    Вы не можете прикреплять файлы к сообщениям
    Вы можете скачивать файлы