Лицензия

MVO

1

1 сезон

Лицензия

Лицензия

13

MVO

1 сезон

Deluxe Edition

pack

Рекомендуем

30

Repack

ВАЖНО

ВАЖНО

Ghostwire

RePack

jed

RePack

fifa19

RePack

RDR2

RePack

NEED FOR SPEED™ PAYBACK

RePack

Кинопоиск HD

 Острые козырьки 6 сезон

6 сезон

FAR CRY 6

RePack

Лицензия

MVO

1

1 сезон

1 сезон

Лицензия

  

Дети сексу не помеха / Friends with Kids (Дженнифер Уэстфелд) [2011 г., комедия, BDRip] DUB |лицензия|

Дети сексу не помеха через торрент pb.wtf

Размер: 1.46 GB | Добавлен: 10 лет назад | Торрент скачан:2035 раз
Смотреть онлайн Дети сексу не помеха | Скачать   

30-05-2012 17:13 Дети сексу не помеха Скачать торрент  

Дети сексу не помеха / Friends with Kids

Год выпуска: 2011
Страна: США
Жанр: комедия
Продолжительность: 01:48:30
Перевод: Профессиональный (полное дублирование) |Лицензия|
Режиссер: Дженнифер Уэстфелд
Продюссер: Джошуа Астрачан, Дженнифер Уэстфелд, Риза Азиз
Сценарий: Дженнифер Уэстфелд
Премьера в мире: 9 сентября 2011
Премьера в РФ: 3 мая 2012, «UPI»
В ролях: Адам Скотт, Дженнифер Уэстфелд, Джон Хэмм, Кристен Уиг, Майя Рудольф, Крис О’Дауд, Меган Фокс, Эдвард Бёрнс, Ли Брайант, Келли Бишоп
Описание: Есть ли секс после свадьбы? Все знают: в медовый месяц — страстный, через пару лет — уже не очень. Но выход есть.Джейсон и Джули решают завести ребенка, но при этом остаться только друзьями. Десять минут, девять месяцев — малыш готов. И уже Джейсон приударяет за шикарной брюнеткой, а Джули встречается с брутальным немцем. Но правда ли, что дети сексу не помеха?
R - Лицам до 17 лет обязательно присутствие взрослого
6.30 (3 268)

Качество: BDRip
Формат: AVI
Видео кодек: XviD
Аудио кодек: AC3
Видео: 720x400 (16:9), 24 fps, XviD ~ 1463 kbps avg, 0.212 bit/pixel
Аудио: 48 kHz, AC3, 6 ch, 448 kbps
Общее
Полное имя : Deti.seksu.ne.pomeha.2011.D.BDRip.avi
Формат : AVI
Формат/Информация : Audio Video Interleave
Размер файла : 1,46 Гбайт
Продолжительность : 1 ч. 48 м.
Общий поток : 1920 Кбит/сек
Программа кодирования : VirtualDubMod 1.5.10.3 (build 2550/release)
Библиотека кодирования : VirtualDubMod build 2550/release

Видео
Идентификатор : 0
Формат : MPEG-4 Visual
Профиль формата : Advanced [email protected]
Параметр BVOP формата : 1
Параметр QPel формата : Нет
Параметр GMC формата : Без точки перехода
Параметр матрицы формата : Выборочная
Идентификатор кодека : XVID
Идентификатор кодека/Подсказка : XviD
Продолжительность : 1 ч. 48 м.
Битрейт : 1463 Кбит/сек
Ширина : 720 пикселей
Высота : 400 пикселей
Соотношение сторон : 16:9
Частота кадров : 24,000 кадра/сек
Цветовое пространство : YUV
Субдискретизация насыщенности : 4:2:0
Битовая глубина : 8 бит
Тип развёртки : Прогрессивная
Метод сжатия : С потерями
Бит/(Пиксели*Кадры) : 0.212
Размер потока : 1,11 Гбайт (76%)
Библиотека кодирования : XviD 65

Аудио
Идентификатор : 1
Формат : AC-3
Формат/Информация : Audio Coding 3
Расширение режима : CM (complete main)
Параметр Endianness формата : Big
Идентификатор кодека : 2000
Продолжительность : 1 ч. 48 м.
Вид битрейта : Постоянный
Битрейт : 448 Кбит/сек
Каналы : 6 каналов
Расположение каналов : Front: L C R, Side: L R, LFE
Частота : 48,0 КГц
Битовая глубина : 16 бит
Метод сжатия : С потерями
Размер потока : 348 Мбайт (23%)
Выравнивание : Разделение по промежуткам
Продолжительность промежутка : 42 мс. (1,00 видеокадр)
Время предзагрузки промежутка : 500 мс.
скриншот  скриншот  скриншот  скриншот  



Скачать Дети сексу не помеха через торрент https://pic1.kartinco.top/images/2000/ururykswue.jpg Скачать, смотреть онлайн Дети сексу не помеха бесплантно в хорошем качестве Описание: Есть ли секс после свадьбы? Все знают: в медовый месяц — страстный, через пару лет — уже не очень. Но выход есть.Джейсон и Джули ... 10 10 3
Info! Золотая раздача, скачанное не засчитывается.
Торрент: Зарегистрирован [2012-05-30 17:13] · скачан: 2 035 раз
Статус: √ проверено
Размер: 1.46 GB
Как cкачать? Как скачать Дети сексу не помеха через торрент | UTorrent

% Раздел Тема Автор DL S | L
Фильмы 2011 [ 1.46 GB ] Дети сексу не помеха / Friends with Kids | DUB |лицензия| | BDRip-AVC Mr. Freeman Скачать
1 | 0
Фильмы [HD 720p, 1080p] (Хороший звук DUB, MVO) [ 5.33 GB ] Дети сексу не помеха / Friends with Kids | DUB | 720p ~Relizer~ Скачать
1 | 0

28-11-2019 20:33  

Отключить вcю реклaмy на сайте

30-05-2012 17:51 Дети сексу не помеха Скачать торрент  

как фильМ?))



30-05-2012 18:00 Дети сексу не помеха Скачать торрент  

ниче себе перевод названия, вроде переводится дружба с детьми



30-05-2012 18:59 Дети сексу не помеха Скачать торрент  

Друзья с детьми должно быть. Этот разврат в фильмах уже заколебал, надо проходить мимо



30-05-2012 19:09 Дети сексу не помеха Скачать торрент  

Surn писал(а):

ниче себе перевод названия, вроде переводится дружба с детьми

дружба по английски friendship это для общего развития))а friends это друзья (иными словами друзья у которых есть дети) , теперь еще раз попробуй покумекать как бы перевести)) теперь второй момент: в разных языках сочетания слов имеют смысл отличающийся от такого же набора русских слов ,поэтому google переводчик тебе тут не поможет как не проси ))отсюда вывод , или глубже учить язык или верить другим людям на слово



30-05-2012 19:34 Дети сексу не помеха Скачать торрент  

мне думается это лучше чем Железное небо....



30-05-2012 20:53 Дети сексу не помеха Скачать торрент  

KomyakPatriot писал(а):

мне думается это лучше чем Железное небо....

судя по рейтингам железное небо рулит)



04-06-2012 18:15 Дети сексу не помеха Скачать торрент  

Похоже это изврат типа "Секс по дружбе".Кстати,режиссер,гг и сценарист -женщина,Дженнифер Уэстфелд.
Релизеру-я нажал на кнопку



05-08-2012 15:22 Дети сексу не помеха Скачать торрент  

Комедия, блин? Умойте лица... Комедией и не пахнет. Чушь полнейшая!!! Смотрели четвером (смешанным составом), ни один лицевой мускул не дрогнул... Ни у кого!!! Ниже среднего...



    Дорогой пользователь! Огромная просьба, поблагодарите релизера, оцените раздачу и оставьте свои комментарий, если Вы скачали Дети сексу не помеха через торрент бесплатно!!
    Комментировать посты могут только пользователи прошедшие не сложную регистрацию
    Показать сообщения:    


    Дети сексу не помеха через торрент
    Скачать бесплатно Дети сексу не помеха
    Дети сексу не помеха скачать торрент
    Дети сексу не помеха смотреть онлайн
    Cкачать фильм Дети сексу не помеха бесплатно
    Дети сексу не помеха скачать торрент в хорошем качестве
    Дети сексу не помеха смотреть онлайн бесплатно в хорошем качестве
    Вы не можете начинать темы
    Вы не можете отвечать на сообщения
    Вы не можете редактировать свои сообщения
    Вы не можете удалять свои сообщения
    Вы не можете голосовать в опросах
    Вы не можете прикреплять файлы к сообщениям
    Вы можете скачивать файлы