Доктор Стрэндж

Лицензия

Добыча

MVO

Дом дракона

1 сезон

Тор

Лицензия

Мэверик

Лицензия

Там, где раки поют

MVO

Властелин колец

1 сезон

Ultimate

pack

Рекомендуем

30

Repack

ВАЖНО

ВАЖНО

Ghostwire

RePack

jed

RePack

nioh2

RePack

RDR2

RePack

NEED FOR SPEED™ PAYBACK

RePack

скачать торрент

Кинопоиск HD

Острые козырьки 6 сезон

6 сезон

FAR CRY 6

RePack

скачать торрент

Лицензия

скачать торрент

MVO

1

1 сезон

скачать торрент

1 сезон

скачать торрент

Лицензия

  

Бессонница / Insomnia (Кристофер Нолан) [2002 г., Триллер, драма, криминал, детектив, HDRip-AVC, DUB (лицензия)]

Бессонница через торрент pb.wtf

Размер: 1.45 GB | Добавлен: 10 лет назад | Торрент скачан:100 раз
Смотреть онлайн | Скачать   

08-08-2012 08:22 Бессонница Скачать торрент  


Бессонница / Insomnia
Год выпуска: 2002
Страна: США, Канада
Жанр: Триллер, драма, криминал, детектив
Продолжительность: 01:58:13
Перевод: Дубляж (Лицензия)
Режиссер: Кристофер Нолан
Бюджет: $46 000 000
Премьера в мире: 3 мая 2002

В ролях: Аль Пачино, Робин Уильямс, Хилари Суэнк, Мартин Донован, Оливер «Оли» Земен, Пол Дули, Никки Кэтт, Ларри Холден, Джей Бразо, Лорни Кардинал
Описание: Опытный детектив полиции Лос-Анджелеса Уилл Домер вместе со своим напарником направлен в маленький городок на Аляске, чтобы расследовать убийство семнадцатилетней девушки. Помощником Дормера также становится проницательный детектив местной полиции Элли Бур.
Расследование продвигается, и скоро у полицейских появляется подозреваемый. Это Уолтер Финч (Робин Уильямс) — человек романтического склада характера, ведущий уединенный образ жизни. Напарник Дормера погибает во время одного из полицейских дежурств на пустынном скалистом берегу.
Эта случайная смерть лишает Дормера сна. Все больше запутываясь в сетях махинаций Финча, Дормер рискует потерять не только сон этими белыми летними ночами…
Качество: HDRip-AVC
Формат: MKV
Видео кодек: H.26x
Аудио кодек: AC3
Видео: 1024х424 (2.40:1), 23,976 fps, AVC (х264), [email protected], ~1376 Kbps, 0.132 bit/pixel
Аудио: 48 kHz, AC3 Dolby Digital, 3/2 (L,C,R,l,r) + LFE ch, ~384 kbps avg







Видео:
Идентификатор: 1
Формат: AVC
Формат/Информация: Advanced Video Codec
Профиль формата: [email protected]
Параметр CABAC формата: Да
Параметр ReFrames формата: 16 кадров
Параметры GOP формата: M=1, N=9
Идентификатор кодека: V_MPEG4/ISO/AVC
Продолжительность: 1 ч. 58 м.
Битрейт: 1376 Кбит/сек
Ширина: 1024 пикс.
Высота: 424 пикс.
Соотношение сторон: 2,40:1
Частота кадров: 23,976 кадр/сек
Цветовое пространство: YUV
Подвыборка цветности: 4:2:0
Битовая глубина: 8 бит
Тип развёртки: Прогрессивная
Бит/(Пиксели*Кадры): 0.132
Размер потока: 1,11 Гбайт (76%)
Библиотека кодирования: x264 core 116 r2074 2641b9e
Настройки программы: cabac=1 / ref=16 / deblock=1:-1:-2 / analyse=0x3:0x133 / me=umh / subme=10 / psy=1 / psy_rd=1.00:0.10 / mixed_ref=1 / me_range=16 / chroma_me=1 / trellis=2 / 8x8dct=1 / cqm=0 / deadzone=21,11 / fast_pskip=0 / chroma_qp_offset=-3 / threads=3 / sliced_threads=0 / nr=0 / decimate=1 / interlaced=0 / bluray_compat=0 / constrained_intra=0 / bframes=9 / b_pyramid=2 / b_adapt=2 / b_bias=0 / direct=3 / weightb=1 / open_gop=0 / weightp=2 / keyint=250 / keyint_min=23 / scenecut=40 / intra_refresh=0 / rc_lookahead=50 / rc=2pass / mbtree=1 / bitrate=1376 / ratetol=1.0 / qcomp=0.60 / qpmin=0 / qpmax=69 / qpstep=4 / cplxblur=20.0 / qblur=0.5 / ip_ratio=1.40 / aq=1:1.00

Аудио:
Идентификатор: 2
Формат: AC-3
Формат/Информация: Audio Coding 3
Расширение режима: CM (complete main)
Идентификатор кодека: A_AC3
Продолжительность: 1 ч. 58 м.
Вид битрейта: Постоянный
Битрейт: 384 Кбит/сек
Каналы: 6 каналов
Расположение каналов: Front: L C R, Side: L R, LFE
Частота: 48,0 КГц
Битовая глубина: 16 бит
Метод сжатия: С потерями
Размер потока: 325 Мбайт (22%)




Скачать Бессонница через торрент http://i41.fastpic.ru/big/2012/0808/12/d738c47e6871638b6d8f2d545b0c3612.jpg Скачать, смотреть онлайн Бессонница бесплантно в хорошем качестве Описание: Опытный детектив полиции Лос-Анджелеса Уилл Домер вместе со своим напарником направлен в маленький городок на Аляске, чтобы ... 10 10 7
Info! Золотая раздача, скачанное не засчитывается.
Торрент: Зарегистрирован [2012-08-08 08:22] · скачан: 100 раз
Статус: √ проверено
Размер: 1.45 GB
Как cкачать? Как скачать Бессонница через торрент | UTorrent

% Раздел Тема Автор DL S | L
Фильмы [HD 720p, 1080p] (Хороший звук DUB, MVO) [ 7.95 GB ] Бессонница / Insomnia | DUB | 720p от potroks potroks Скачать
1 | 0
Фильмы 2001-2005 [ 1.46 GB ] Бессонница / Insomnia | DUB | HDRip, DUB (лицензия Vampir7 Скачать
1 | 0
Фильмы 2001-2005 [ 2.18 GB ] Бессонница / Insomnia | | BDRip -=BIGBOSS=- Скачать
1 | 0
Фильмы 2001-2005 [ 2.12 GB ] Бессонница / Insomnia | | DVDRip, лицензия kuvagen Скачать
1 | 0
Фильмы [HD 720p, 1080p] (Хороший звук DUB, MVO) [ 11.88 GB ] Бессонница / Insomnia | DUB MVO DVO Инна Королева и Петр Гланц + Sub rus + original eng | 1080p EXEBET Скачать
1 | 0

28-11-2019 20:33  


Отключить вcю реклaмy на сайте, в т.ч. и в плеере онлайн просмотра!

08-08-2012 14:03 Бессонница Скачать торрент  

Если фильм Нолана, то скачаю и пересмотрю, раньше он мне не понравился..



28-11-2017 14:30 Бессонница Скачать торрент  

Dean24, раздай пожалуйста "бессонница"



    Дорогой пользователь! Огромная просьба, поблагодарите релизера, оцените раздачу и оставьте свои комментарий, если Вы скачали Бессонница через торрент бесплатно!!
    Комментировать посты могут только пользователи прошедшие не сложную регистрацию
    Показать сообщения:    


    Бессонница через торрент
    Скачать бесплатно Бессонница
    Бессонница скачать торрент
    Бессонница смотреть онлайн
    Cкачать фильм Бессонница бесплатно
    Бессонница скачать торрент в хорошем качестве
    Бессонница смотреть онлайн бесплатно в хорошем качестве
    Вы не можете начинать темы
    Вы не можете отвечать на сообщения
    Вы не можете редактировать свои сообщения
    Вы не можете удалять свои сообщения
    Вы не можете голосовать в опросах
    Вы не можете прикреплять файлы к сообщениям
    Вы можете скачивать файлы