Ссылка на приватное зеркало нашего сайта всего за 1$. Внимание количество ограничено!!!

2 сезон

iTunes

1 сезон

1

2 сезон

2 сезон

iTunes

1 сезон

RePack

30

Новинка

ВАЖНО

ИГРА 18+

pack

RePack

MK11
pack

Забери бонус

RePack

jed

!!Акция!!

Alien_Rage

RePack

fifa19

RePack

Assassins Creed: Odyssey

RePack

NEED FOR SPEED™ PAYBACK

4 сезон

9 сезон

Бесстыжие 9 сезон

Все сериалы

все сериалы на PB.wtf

RePack

FAR CRY 5
  

Кoрoль гoвoрит! / Thе King's Spееch (Том Хупер / Tom Hooper) [2010, США, Великобритания, Австралия, Драма, биография, история, HDRip-AVC] pb.wtf

Кoрoль гoвoрит! через торрент pb.wtf

Размер: 1.02 GB | Добавлен: 8 лет 3 мес. назад | Торрент скачан:37 раз
Скачать  

11-08-2012 15:01 Кoрoль гoвoрит! Скачать торрент  

Король говорит! / The King's Speech

Страна: США, Великобритания, Австралия
Жанр: Драма, биография, история
Год выпуска: 2010
Продолжительность: 01:53:40
Перевод: Профессиональный (дублированный)
Cубтитры: нет
Режиссер: Том Хупер / Tom Hooper
В ролях: Колин Ферт, Джеффри Раш, Хелена Бонем Картер, Гай Пирс, Тимоти Сполл, Дерек Джекоби, Дженнифер Эль, Энтони Эндрюс, Клер Блум, Ив Бест, Майкл Гэмбон и др.
Описание: История восхождения на английский трон короля Георга VI – отца нынешней королевы Елизаветы II. Фильм основан на реальных событиях.После смерти своего отца, короля Георга V (Майкл Гэмбон) и скандального отречения от престола короля Эдварда VIII (Гай Пирс), неожиданно для всех на английский престол восходит незадачливый Берти и становится королем Георгом VI (Колин Ферт). Страна находится на пороге войны и ей как никогда в истории необходим лидер. Фильм повествует о пути застенчивого человека, нашедшего в себе уверенность и силу для того, чтобы быть королем.

Качество: HDRip-AVC | Семпл
Формат: MKV
Видео кодек:x264
Аудио кодек: AC3
Видео: x264, 1280x688 , 784 Kbps, 23,976 fps, 0.037 Bits/(Pixel*Frame)
Аудио: AC3, 48.0 KHz, 448 Kbps, 6 channels
Автор рипа: MaRoGi

Релиз группа:
Общее
Уникальный идентификатор : 222614208026491331490381784868059037039 (0xA779EFDA8A983ACA8C536C292A8F3D6F)
Полное имя : C:\Users\MAROGI\Desktop\The.Kings.Speech.2010_HDRip-AVC_[Bkpo-Club].mkv
Формат : Matroska
Версия формата : Version 2
Размер файла : 1,02 Гбайт
Продолжительность : 1 ч. 58 м.
Общий поток : 1234 Кбит/сек
Дата кодирования : UTC 2012-08-11 10:54:39
Программа кодирования : mkvmerge v5.6.0 ('Kenya Kane') built on Jun 29 2012 15:01:44
Библиотека кодирования : libebml v1.2.3 + libmatroska v1.3.0

Видео
Идентификатор : 1
Формат : AVC
Формат/Информация : Advanced Video Codec
Профиль формата : High@L3.1
Параметр CABAC формата : Да
Параметр ReFrames формата : 4 кадра
Идентификатор кодека : V_MPEG4/ISO/AVC
Продолжительность : 1 ч. 58 м.
Битрейт : 784 Кбит/сек
Ширина : 1280 пикселей
Высота : 688 пикселей
Соотношение сторон : 1,860
Частота кадров : 23,976 кадра/сек
Цветовое пространство : YUV
Субдискретизация насыщенности : 4:2:0
Битовая глубина : 8 бит
Тип развёртки : Прогрессивная
Бит/(Пиксели*Кадры) : 0.037
Размер потока : 645 Мбайт (62%)
Библиотека кодирования : x264 core 125 r2200 999b753
Настройки программы : cabac=1 / ref=3 / deblock=1:0:0 / analyse=0x3:0x113 / me=hex / subme=7 / psy=1 / psy_rd=1.00:0.00 / mixed_ref=1 / me_range=16 / chroma_me=1 / trellis=1 / 8x8dct=1 / cqm=0 / deadzone=21,11 / fast_pskip=1 / chroma_qp_offset=-2 / threads=6 / lookahead_threads=1 / sliced_threads=0 / nr=0 / decimate=1 / interlaced=0 / bluray_compat=0 / constrained_intra=0 / bframes=3 / b_pyramid=2 / b_adapt=1 / b_bias=0 / direct=3 / weightb=1 / open_gop=0 / weightp=2 / keyint=250 / keyint_min=23 / scenecut=40 / intra_refresh=0 / rc_lookahead=40 / rc=2pass / mbtree=1 / bitrate=784 / ratetol=1.0 / qcomp=0.60 / qpmin=0 / qpmax=69 / qpstep=4 / cplxblur=20.0 / qblur=0.5 / ip_ratio=1.40 / aq=1:1.00
Default : Да
Forced : Нет

Аудио
Идентификатор : 2
Формат : AC-3
Формат/Информация : Audio Coding 3
Расширение режима : CM (complete main)
Идентификатор кодека : A_AC3
Продолжительность : 1 ч. 58 м.
Вид битрейта : Постоянный
Битрейт : 448 Кбит/сек
Каналы : 6 каналов
Расположение каналов : Front: L C R, Side: L R, LFE
Частота : 48,0 КГц
Битовая глубина : 16 бит
Метод сжатия : С потерями
Размер потока : 380 Мбайт (36%)
Default : Да
Forced : Нет
[/code]
pb.wtf



Скачать Кoрoль гoвoрит! через торрент http://i43.fastpic.ru/big/2012/0811/44/dcdc87f9de36f1007ea79ba17f08ff44.png Скачать фильм Кoрoль гoвoрит! через торрент бесплантно в хорошем качестве Описание: История восхождения на английский трон короля Георга VI – отца нынешней королевы Елизаветы II. Фильм основан на реальных ... 5 10 1
Info! Золотая раздача, скачанное не засчитывается.
Торрент: Зарегистрирован [2012-08-11 15:01] · скачан: 37 раз
Статус: √ проверено
Размер: 1.02 GB
Как cкачать? Как скачать Кoрoль гoвoрит! через торрент | qTorrent

28-11-2019 20:33  

Отключить всю рекламу на сайте

    Дорогой пользователь! Огромная просьба, поблагодарите релизера, оцените раздачу и оставьте свои комментарий, если Вы скачали Кoрoль гoвoрит! через торрент бесплатно! Внесите свою лепту в развитие PiratBit!
    Комментировать посты могут только пользователи прошедшие не сложную регистрацию
    Показать сообщения:    

    Кoрoль гoвoрит! через торрент
    Скачать бесплатно Кoрoль гoвoрит!
    Кoрoль гoвoрит! скачать торрент
    Кoрoль гoвoрит! смотреть онлайн
    Cкачать фильм Кoрoль гoвoрит! бесплатно
    Кoрoль гoвoрит! скачать торрент в хорошем качестве
    Кoрoль гoвoрит! смотреть онлайн бесплатно в хорошем качестве


    Вы не можете начинать темы
    Вы не можете отвечать на сообщения
    Вы не можете редактировать свои сообщения
    Вы не можете удалять свои сообщения
    Вы не можете голосовать в опросах
    Вы не можете прикреплять файлы к сообщениям
    Вы можете скачивать файлы