Ссылка на приватное зеркало нашего сайта всего за 1$. Внимание количество ограничено!!!

2 сезон

iTunes

1 сезон

1

2 сезон

2 сезон

iTunes

1 сезон

RePack

30

Новинка

ВАЖНО

ИГРА 18+

pack

RePack

MK11
pack

Забери бонус

RePack

jed

!!Акция!!

Alien_Rage

RePack

fifa19

RePack

Assassins Creed: Odyssey

RePack

NEED FOR SPEED™ PAYBACK

4 сезон

9 сезон

Бесстыжие 9 сезон

Все сериалы

все сериалы на PB.wtf

RePack

FAR CRY 5
  

Столкновение / Crash (Пол Хаггис) [2004 г., драма, BDRip (720p)] pb.wtf

Столкновение через торрент pb.wtf

Размер: 4.17 GB | Добавлен: 8 лет 9 мес. назад | Торрент скачан:109 раз
Скачать  

28-02-2012 12:29 Столкновение Скачать торрент  

Столкновение / Crash

Год выпуска: 2004
Страна: США, Германия
Жанр: драма
Продолжительность: 01:55:00
Перевод: Профессиональный (полное дублирование) [Лицензия]

Режиссер: Пол Хаггис
Продюссер: Дон Чидл, Роберт Мореско, Кэти Шульман
Сценарий: Пол Хаггис, Роберт Мореско

В ролях: Дон Чидл, Мэтт Диллон, Сандра Буллок, Брендан Фрейзер, Терренс Ховард, Тэнди Ньютон, Райан Филипп, Майкл Пенья, Бахар Сумех, Лудакрис, Вячеслав Баранов, Олег Куценко, Ольга Плетнёва, Владимир Антоник, Виктор Бохон

Описание: Закон и преступление, порядок и беспредел, защитник и жертва — неизбежное противостояние и столкновение. Полицейские — порядок, законопослушные граждане — закон. Но все ли граждане, слывущие добропорядочными, соблюдают законы, и всем ли представителям закона стоит доверять? Прикрываясь значком полицейского, они вершат беззаконие и из праведников превращаются в изощренных насильников.

Качество: BDRip (720p)
Формат: MKV
Видео кодек: AVC
Аудио кодек: AC3
Видео: 1280x544 (2.35), 23.976 fps, 4 672 Kbps (0.274 bit/pixel)
Аудио: 48.0 KHz, 6 ch, 512 Kbps, CBR
Субтитры: Russian, English, Spanish
Общее
Уникальный идентификатор : 215455157173012730041597362930793555095 (0xA21727652711864799DA9D99E333A497)
Полное имя : D:\Фильмы\Столкновение.BDRip.720p.mkv
Формат : Matroska
Версия формата : Version 2
Размер файла : 4,17 Гбайт
Продолжительность : 1 ч. 55 м.
Общий поток : 5187 Кбит/сек
Дата кодирования : UTC 2010-02-11 17:34:01
Программа кодирования : mkvmerge v2.9.8 ('C'est le bon') built on Aug 13 2009 12:49:06
Библиотека кодирования : libebml v0.7.7 + libmatroska v0.8.1

Видео
Идентификатор : 1
Формат : AVC
Формат/Информация : Advanced Video Codec
Профиль формата : High@L5.1
Параметр CABAC формата : Да
Параметр ReFrames формата : 7 кадров
Идентификатор кодека : V_MPEG4/ISO/AVC
Продолжительность : 1 ч. 55 м.
Битрейт : 4672 Кбит/сек
Ширина : 1280 пикселей
Высота : 544 пикселя
Соотношение сторон : 2,35:1
Частота кадров : 23,976 кадра/сек
Цветовое пространство : YUV
Субдискретизация насыщенности : 4:2:0
Битовая глубина : 8 бит
Тип развёртки : Прогрессивная
Бит/(Пиксели*Кадры) : 0.280
Размер потока : 3,67 Гбайт (88%)
Библиотека кодирования : x264 core 58 svn-736M
Настройки программы : cabac=1 / ref=7 / deblock=1:-3:-3 / analyse=0x3:0x133 / me=umh / subme=7 / me-prepass=0 / brdo=1 / mixed_ref=1 / me_range=26 / chroma_me=1 / trellis=1 / 8x8dct=1 / cqm=2 / deadzone=21,11 / chroma_qp_offset=0 / threads=6 / nr=0 / decimate=1 / mbaff=0 / bframes=16 / b_pyramid=1 / b_adapt=1 / b_bias=0 / direct=3 / wpredb=1 / bime=1 / keyint=250 / keyint_min=25 / scenecut=40(pre) / rc=2pass / bitrate=4672 / ratetol=1.0 / rceq='blurCplx^(1-qComp)' / qcomp=0.60 / qpmin=10 / qpmax=51 / qpstep=4 / cplxblur=20.0 / qblur=0.5 / ip_ratio=1.40 / pb_ratio=1.30 / aq=1:0.6:16.0
Язык : English
Default : Да
Forced : Нет

Аудио
Идентификатор : 2
Формат : AC-3
Формат/Информация : Audio Coding 3
Расширение режима : CM (complete main)
Идентификатор кодека : A_AC3
Продолжительность : 1 ч. 55 м.
Вид битрейта : Постоянный
Битрейт : 512 Кбит/сек
Каналы : 6 каналов
Расположение каналов : Front: L C R, Side: L R, LFE
Частота : 48,0 КГц
Битовая глубина : 16 бит
Метод сжатия : С потерями
Размер потока : 421 Мбайт (10%)
Заголовок : Дубляж
Язык : Russian
Default : Да
Forced : Нет

Текст #1
Идентификатор : 3
Формат : UTF-8
Идентификатор кодека : S_TEXT/UTF8
Идентификатор кодека/Информация : UTF-8 Plain Text
Заголовок : Tycoon-studio
Язык : Russian
Default : Нет
Forced : Нет

Текст #2
Идентификатор : 4
Формат : UTF-8
Идентификатор кодека : S_TEXT/UTF8
Идентификатор кодека/Информация : UTF-8 Plain Text
Язык : English
Default : Нет
Forced : Нет

Текст #3
Идентификатор : 5
Формат : UTF-8
Идентификатор кодека : S_TEXT/UTF8
Идентификатор кодека/Информация : UTF-8 Plain Text
Язык : Spanish
Default : Нет
Forced : Нет
скриншот   скриншот   скриншот   скриншот   скриншот  pb.wtf



Скачать Столкновение через торрент http://i27.fastpic.ru/big/2012/0228/aa/2e14981d5c1719c17d354b74c40defaa.jpg Скачать фильм Столкновение через торрент бесплантно в хорошем качестве Описание: Закон и преступление, порядок и беспредел, защитник и жертва — неизбежное противостояние и столкновение. Полицейские — порядок, ... 10 10 1
Info! Золотая раздача, скачанное не засчитывается.
Торрент: Зарегистрирован [2012-02-28 12:29] · скачан: 109 раз
Статус: √ проверено
Размер: 4.17 GB
Как cкачать? Как скачать Столкновение через торрент | qTorrent

% Раздел Тема Автор DL S | L
Фильмы [HD 720p, 1080p] (Хороший звук DUB, MVO) [ 5.9 GB ] Столкновение / Crash / 2004 [2004 BDRip 720p by msltel] DUB 2 x DVO 2 x AVO msltel Скачать
1 | 0
Фильмы [HD 720p, 1080p] (Хороший звук DUB, MVO) [ 16.39 GB ] Столкновение / Crash / 2004 [2004 BDRip 1080p by msltel] DUB 2 x DVO 2 x AVO msltel Скачать
1 | 0
Релизы по Парсеру [Игры, Сериалы и Фильмы и другое...] [ 1.46 GB ] Столкновение / Crash [2004 Германия BDRip] [Режиссерская версия / Director's Cut] AVO sanekbest1 Скачать
1 | 0
Фильмы 2001-2005 [ 2.18 GB ] Столкновение. Режиссёрская версия / Crash. Director's Cut [2004 HQRip] SeriyWolf Скачать
1 | 0
Фильмы [HD 720p, 1080p] (Хороший звук DUB, MVO) [ 6.17 GB ] Столкновение / Crash [2004 BDRip 720p] DUB DVO AVO / Режиссёрская версия msltel Скачать
1 | 0
Фильмы [HD 720p, 1080p] (Хороший звук DUB, MVO) [ 10.19 GB ] Столкновение / Crash [2004 BDRip 1080p DUB DVO AVO] кэп Скачать
1 | 0
Фильмы 2001-2005 [ 1.46 GB ] Столкновение / Crash [2004 Германия BDRip] [Режиссерская версия / Director's Cut] Dub + DVO Mr. Freeman Скачать
1 | 0

28-11-2019 20:33  

Отключить всю рекламу на сайте

28-02-2012 14:04 Столкновение Скачать торрент  

Интересно, надо глянуть. Спасибо. )))pb.wtf



28-02-2012 15:06 Столкновение Скачать торрент  

Огромнейшее СПАСИБО!!! Давно искал.pb.wtf



28-02-2012 15:17 Столкновение Скачать торрент  

фильм отличный, есть о чем подуматьpb.wtf



28-02-2012 17:16 Столкновение Скачать торрент  

фильм отличный, давно смотрелpb.wtf



24-08-2012 14:44 Столкновение Скачать торрент  

раздайте - хочется скачать фильм - скорость 0pb.wtf



    Дорогой пользователь! Огромная просьба, поблагодарите релизера, оцените раздачу и оставьте свои комментарий, если Вы скачали Столкновение через торрент бесплатно! Внесите свою лепту в развитие PiratBit!
    Комментировать посты могут только пользователи прошедшие не сложную регистрацию
    Показать сообщения:    

    Столкновение через торрент
    Скачать бесплатно Столкновение
    Столкновение скачать торрент
    Столкновение смотреть онлайн
    Cкачать фильм Столкновение бесплатно
    Столкновение скачать торрент в хорошем качестве
    Столкновение смотреть онлайн бесплатно в хорошем качестве


    Вы не можете начинать темы
    Вы не можете отвечать на сообщения
    Вы не можете редактировать свои сообщения
    Вы не можете удалять свои сообщения
    Вы не можете голосовать в опросах
    Вы не можете прикреплять файлы к сообщениям
    Вы можете скачивать файлы