Лицензия

MVO

1

1 сезон

Лицензия

Лицензия

13

MVO

1 сезон

Ultimate

pack

Рекомендуем

30

Repack

ВАЖНО

ВАЖНО

Ghostwire

RePack

jed

RePack

fifa19

RePack

RDR2

RePack

NEED FOR SPEED™ PAYBACK

RePack

Кинопоиск HD

 Острые козырьки 6 сезон

6 сезон

FAR CRY 6

RePack

Лицензия

MVO

1

1 сезон

1 сезон

Лицензия

  

Дневник изгоняющего дьявола / Anneliese: The Exorcist Tapes (Джуд Прест) [2011 г., ужасы, DVDRip, MVO, лицензия]

Дневник изгоняющего дьявола через торрент pb.wtf

Размер: 1.37 GB | Добавлен: 10 лет назад | Торрент скачан:325 раз
Смотреть онлайн Дневник изгоняющего дьявола | Скачать   

25-08-2012 16:37 Дневник изгоняющего дьявола Скачать торрент  

Дневник изгоняющего дьявола / Anneliese: The Exorcist Tapes

Год выпуска: 2011
Страна: США
Жанр: ужасы
Продолжительность: 01:26:56
Перевод: Профессиональный многоголосый, Лицензия
Тип релиза: Лицензия

Режиссер: Джуд Прест
Продюссер: Пол Бейлс, Мэри Е. Браун, Дэвид Майкл Лэтт

Премьера в мире: 1 марта 2011 США

Рейтинг R - Детям до 17 лет обязательно присутствие родителей

Мировой рейтинг IMDB 3.10 (277)



В ролях: Gerold Wunstel, Kai Cofer, Кристофер Карл Джонсон, Николь Мюллер, Yasmin Canli, Robert Shampain, Кори Симеоне, Annette Remter, Дэвид Рейнольдс

Описание: Германия. 1976. Родители 23-летней Аннелизы Мишель, напуганные ее состоянием, приглашают священников провести обряд изгнания нечистой силы. Пастор Эрнст Альт и Отец Арнольд Рензом делают все возможное, но обряды не помогают. Тогда им в помощь приглашают экспертов по эпилепсии Доктора Грюьера и Доктора Лэндерса. Последний не верит во всякие сверхъестественные силы и приезжает с маленькой операторской группой, чтобы запечатлеть весь процесс на пленку. Но на этот раз всем придется столкнуться с силами, выходящими за рамки нашего воображения...

Качество: DVDRip
Формат: AVI
Видео кодек: XviD
Аудио кодек: AC3
Видео: 704x528 (1.33:1), 25 fps, XviD build 50 ~1861 kbps avg, 0.20 bit/pixel
Аудио: 48 kHz, AC3 Dolby Digital, 3/2 (L,C,R,l,r) + LFE ch, ~384 kbps





Формат : AVI
Формат/Информация : Audio Video Interleave
Размер файла : 1,37 Гбайт
Продолжительность : 1 ч. 26 м.
Общий поток : 2256 Кбит/сек
Название фильма : Dnevnik.izgonyayushhego.dyavola.2011.P.DVDRip.IRONCLUB
Режиссёр : IRONCLUB
Программа кодирования : VirtualDubMod 1.5.10.3 | www.virtualdub-fr.org || (build 2550/release)

Видео
Идентификатор : 0
Формат : MPEG-4 Visual
Профиль формата : Advanced [email protected]
Параметр BVOP формата : 2
Параметр QPel формата : Нет
Параметр GMC формата : Без точки перехода
Параметр матрицы формата : Выборочная
Идентификатор кодека : XVID
Идентификатор кодека/Подсказка : XviD
Продолжительность : 1 ч. 26 м.
Битрейт : 1862 Кбит/сек
Ширина : 704 пикселя
Высота : 528 пикселей
Соотношение сторон : 4:3
Частота кадров : 25,000 кадров/сек
Цветовое пространство : YUV
Субдискретизация насыщенности : 4:2:0
Битовая глубина : 8 бит
Тип развёртки : Прогрессивная
Метод сжатия : С потерями
Бит/(Пиксели*Кадры) : 0.200
Размер потока : 1,13 Гбайт (83%)
Библиотека кодирования : XviD 1.2.1 (UTC 2008-12-04)

Аудио
Идентификатор : 1
Формат : AC-3
Формат/Информация : Audio Coding 3
Расширение режима : CM (complete main)
Идентификатор кодека : 2000
Продолжительность : 1 ч. 26 м.
Вид битрейта : Постоянный
Битрейт : 384 Кбит/сек
Каналы : 6 каналов
Расположение каналов : Front: L C R, Side: L R, LFE
Частота : 48,0 КГц
Битовая глубина : 16 бит
Метод сжатия : С потерями
Размер потока : 239 Мбайт (17%)
Выравнивание : Разделение по промежуткам
Продолжительность промежутка : 40 мс. (1,00 видеокадр)
Время предзагрузки промежутка : 500 мс.




Скачать Дневник изгоняющего дьявола через торрент http://i43.fastpic.ru/big/2012/0825/a4/35f1729a09ce925d86fbfc09d00530a4.png Скачать, смотреть онлайн Дневник изгоняющего дьявола бесплантно в хорошем качестве Описание: Германия. 197 Родители 23-летней Аннелизы Мишель, напуганные ее состоянием, приглашают священников провести обряд изгнания ... 5 10 1
Info! Золотая раздача, скачанное не засчитывается.
Торрент: Зарегистрирован [2012-08-25 16:37] · скачан: 325 раз
Статус: √ проверено
Размер: 1.37 GB
Как cкачать? Как скачать Дневник изгоняющего дьявола через торрент | UTorrent




Последний раз редактировалось: makarevich (2012-08-25 17:45), всего редактировалось 5 раз(а)

28-11-2019 20:33  

Отключить вcю реклaмy на сайте

25-08-2012 16:50 Дневник изгоняющего дьявола Скачать торрент  

Египетская сила! У меня одного миниатюры скришотов- совсем миниатюры?! :lol:



25-08-2012 17:17 Дневник изгоняющего дьявола Скачать торрент  

makarevich
Укажите плиз полную информацию о файле
Видео:
размер кадра(пикселях), битрейт видео(kbps), частота кадра(fps), Бит/(Пиксели*Кадры)
Аудио:
Битрейт аудио (kbps), каналы( ch), частота звука (КГц)

Добавьте MediaInfo
Как получить информацию по видео файлу?



25-08-2012 17:27 Дневник изгоняющего дьявола Скачать торрент  

Vetаl писал(а):

makarevich
Укажите плиз полную информацию о файле
Видео:
размер кадра(пикселях), битрейт видео(kbps), частота кадра(fps), Бит/(Пиксели*Кадры)
Аудио:
Битрейт аудио (kbps), каналы( ch), частота звука (КГц)

всё уже есть.
а MI добавлю



25-08-2012 17:31 Дневник изгоняющего дьявола Скачать торрент  

Что-то на эту тему до фига фильмов



25-08-2012 17:35 Дневник изгоняющего дьявола Скачать торрент  

zra писал(а):

Что-то на эту тему до фига фильмов

так близится "конц света" ,,,



25-08-2012 17:40 Дневник изгоняющего дьявола Скачать торрент  

Асилум не остался в стороне от этой темы Изгоняющий дьявола / The Exorcist



25-08-2012 20:54 Дневник изгоняющего дьявола Скачать торрент  

Как филь... Асилум!!! Вопросов больше не имею
makarevich, Здорово!
Давно не виделись! Да у вас юзеприк весь в золоте, как у короля
Пол сменили...



28-08-2012 16:33 Дневник изгоняющего дьявола Скачать торрент  

Асилум...буэээээ



    Дорогой пользователь! Огромная просьба, поблагодарите релизера, оцените раздачу и оставьте свои комментарий, если Вы скачали Дневник изгоняющего дьявола через торрент бесплатно!!
    Комментировать посты могут только пользователи прошедшие не сложную регистрацию
    Показать сообщения:    


    Дневник изгоняющего дьявола через торрент
    Скачать бесплатно Дневник изгоняющего дьявола
    Дневник изгоняющего дьявола скачать торрент
    Дневник изгоняющего дьявола смотреть онлайн
    Cкачать фильм Дневник изгоняющего дьявола бесплатно
    Дневник изгоняющего дьявола скачать торрент в хорошем качестве
    Дневник изгоняющего дьявола смотреть онлайн бесплатно в хорошем качестве
    Вы не можете начинать темы
    Вы не можете отвечать на сообщения
    Вы не можете редактировать свои сообщения
    Вы не можете удалять свои сообщения
    Вы не можете голосовать в опросах
    Вы не можете прикреплять файлы к сообщениям
    Вы можете скачивать файлы