Доктор Стрэндж

Лицензия

Добыча

MVO

Дом дракона

1 сезон

Тор

Лицензия

Мэверик

Лицензия

Там, где раки поют

MVO

Властелин колец

1 сезон

Ultimate

pack

Рекомендуем

30

Repack

ВАЖНО

ВАЖНО

Ghostwire

RePack

jed

RePack

nioh2

RePack

RDR2

RePack

NEED FOR SPEED™ PAYBACK

RePack

скачать торрент

Кинопоиск HD

Острые козырьки 6 сезон

6 сезон

FAR CRY 6

RePack

скачать торрент

Лицензия

скачать торрент

MVO

1

1 сезон

скачать торрент

1 сезон

скачать торрент

Лицензия

  

Квартира 143 / Emergo (Карлес Торренс) [2011 г., ужасы, HDRip, DVO]

Квартира 143 через торрент pb.wtf

Размер: 1.46 GB | Добавлен: 10 лет назад | Торрент скачан:535 раз
Смотреть онлайн | Скачать   

11-09-2012 08:07 Квартира 143 Скачать торрент  


Квартира 143 / Emergo
Год выпуска: 2011
Страна: Испания / Kinology, Nostromo Pictures
Жанр: ужасы
Продолжительность: 01:20:11
Перевод: Любительский двухголосый

Режиссер: Карлес Торренс

В ролях: Франческ Гарридо, Фиона Глэскотт, Рик Гонсалес, Кай Леннокс, Джина Мантенья, Майкл О’Киф, Дамиан Роман, Лаура Мартусцелли, Ферми Рейксач, Марсель Баррена

Описание: Команда парапсихологов намеревается исследовать серию аномальных явлений, возникших в недавно заселенной квартире. Телефонные звонки в отсутствии звонящего, таинственные тени, необычные световые аномалии, парящие в воздухе объекты, взрывы лампочек лишь некоторые события, с которыми им предстоит столкнуться, попутно снимая все на камеру. Используя инфракрасную съемку, датчики движения, цифровые фотоаппараты, их попытки связаться с потусторонним миром становятся все более и более опасными, пока они не дойдут до точки невозврата.
Доп. информация:


Качество: HDRip
Формат: AVI
Видео кодек: XviD
Аудио кодек: AC3
Видео: 720x384 (1.88:1), 23.976 fps, XviD MPEG-4 ~2153 kbps avg, 0.33 bit/pixel
Аудио#1: 48 kHz, AC3 Dolby Digital, 3/2 (L,C,R,l,r) + LFE ch, ~448 kbps


E:\Movies For Seed\Apartment.143.2011.L2.HDRip.avi
General
Complete name : E:\Movies For Seed\Apartment.143.2011.L2.HDRip.avi
Format : AVI
Format/Info : Audio Video Interleave
File size : 1.46 GiB
Duration : 1h 20mn
Overall bit rate : 2 611 Kbps
Writing application : VirtualDubMod 1.5.10.3 | www.virtualdub-fr.org || (build 2550/release)
Writing library : VirtualDubMod build 2550/release
Video #0
ID : 0
Format : MPEG-4 Visual
Format profile : Advanced [email protected]
Format settings, BVOP : 2
Format settings, QPel : No
Format settings, GMC : No warppoints
Format settings, Matrix : Default (H.263)
Muxing mode : Packed bitstream
Codec ID : XVID
Codec ID/Hint : XviD
Duration : 1h 20mn
Bit rate : 2 154 Kbps
Width : 720 pixels
Height : 384 pixels
Display aspect ratio : 1.85:1
Frame rate : 23.976 fps
Color space : YUV
Chroma subsampling : 4:2:0
Bit depth : 8 bits
Scan type : Progressive
Compression mode : Lossy
Bits/(Pixel*Frame) : 0.325
Stream size : 1.21 GiB (82%)
Writing library : XviD 1.2.1 (UTC 2008-12-04)
Audio #1
ID : 1
Format : AC-3
Format/Info : Audio Coding 3
Mode extension : CM (complete main)
Format settings, Endianness : Big
Codec ID : 2000
Duration : 1h 20mn
Bit rate mode : Constant
Bit rate : 448 Kbps
Channel(s) : 6 channels
Channel positions : Front: L C R, Side: L R, LFE
Sampling rate : 48.0 KHz
Bit depth : 16 bits
Compression mode : Lossy
Delay relative to video : 9s 100ms
Stream size : 257 MiB (17%)
Alignment : Split accross interleaves
Interleave, duration : 42 ms (1.00 video frame)
Interleave, preload duration : 500 ms




Скачать Квартира 143 через торрент http://3.firepic.org/3/images/2012-09/11/08hoqopm0d7z.jpg Скачать, смотреть онлайн Квартира 143 бесплантно в хорошем качестве Описание: Команда парапсихологов намеревается исследовать серию аномальных явлений, возникших в недавно заселенной квартире. Телефонные ... 9 10 4
Info! Золотая раздача, скачанное не засчитывается.
Торрент: Зарегистрирован [2012-09-11 08:07] · скачан: 535 раз
Статус: T временная
Размер: 1.46 GB
Как cкачать? Как скачать Квартира 143 через торрент | UTorrent

28-11-2019 20:33  


Отключить вcю реклaмy на сайте, в т.ч. и в плеере онлайн просмотра!

11-09-2012 08:14 Квартира 143 Скачать торрент  

Спасибо!! Хотел уже в другом месте качать))))



11-09-2012 09:16 Квартира 143 Скачать торрент  

шикарно!спасибо!



    Дорогой пользователь! Огромная просьба, поблагодарите релизера, оцените раздачу и оставьте свои комментарий, если Вы скачали Квартира 143 через торрент бесплатно!!
    Комментировать посты могут только пользователи прошедшие не сложную регистрацию
    Показать сообщения:    


    Квартира 143 через торрент
    Скачать бесплатно Квартира 143
    Квартира 143 скачать торрент
    Квартира 143 смотреть онлайн
    Cкачать фильм Квартира 143 бесплатно
    Квартира 143 скачать торрент в хорошем качестве
    Квартира 143 смотреть онлайн бесплатно в хорошем качестве
    Вы не можете начинать темы
    Вы не можете отвечать на сообщения
    Вы не можете редактировать свои сообщения
    Вы не можете удалять свои сообщения
    Вы не можете голосовать в опросах
    Вы не можете прикреплять файлы к сообщениям
    Вы можете скачивать файлы