Лицензия

MVO

1

1 сезон

Лицензия

Лицензия

13

MVO

1 сезон

Deluxe Edition

pack

Рекомендуем

30

Repack

ВАЖНО

ВАЖНО

Ghostwire

RePack

jed

RePack

fifa19

RePack

RDR2

RePack

NEED FOR SPEED™ PAYBACK

RePack

Кинопоиск HD

 Острые козырьки 6 сезон

6 сезон

FAR CRY 6

RePack

Лицензия

MVO

1

1 сезон

1 сезон

Лицензия

  

Молодые шлюхи №15 / Young Sluts, Inc. 15 (Кэт Слэйтер,Hustler video) [2004 г., All Sex, Legal Teen, DVDRip]

Молодые шлюхи №15 через торрент pb.wtf

Размер: 1.37 GB | Добавлен: 10 лет назад | Торрент скачан:344 раза
Смотреть онлайн Молодые шлюхи №15 | Скачать   

16-09-2012 18:13 Молодые шлюхи №15 Скачать торрент  

Молодые шлюхи №15 / Young Sluts, Inc. 15

Год выпуска: 2004
Страна: США
Жанр: All Sex, Legal Teen
Продолжительность: 01:47:34
Перевод: Оригинал
Тип релиза: Лицензия

Режиссер: Кэт Слэйтер

Студия: Hustler video

Премьера в мире: 20 января 2004

Возраст: 18+

В ролях: Tanya James, Tony Pounds, Taylor Lyn, Lee Stone, Sandra Shine, Monigue Dane, Brett Rockman, Mark Ashley, Sandi Gibson, ...

Качество: DVDRip
Формат: AVI
Видео кодек: XviD
Аудио кодек: MP3
Видео: 1620 Кбит/сек, 720x544 (4:3), 29,970 кадров/сек, 0.145 бит/(пиксели*кадры)
Аудио: ~104 Кбит/сек, 2 канала, 48,0 КГц


Формат : AVI
Формат/Информация : Audio Video Interleave
Размер файла : 1,37 Гбайт
Продолжительность : 1 ч. 47 м.
Режим общего битрейта : Переменный
Общий поток : 1817 Кбит/сек
Программа кодирования : VirtualDubMod 1.5.4.1 (build 2178/release)
Библиотека кодирования : VirtualDubMod build 2178/release

Видео
Идентификатор : 0
Формат : MPEG-4 Visual
Профиль формата : Advanced [email protected]
Параметр BVOP формата : 1
Параметр QPel формата : Нет
Параметр GMC формата : Без точки перехода
Параметр матрицы формата : Выборочная
Идентификатор кодека : XVID
Идентификатор кодека/Подсказка : XviD
Продолжительность : 1 ч. 47 м.
Битрейт : 1699 Кбит/сек
Ширина : 720 пикселей
Высота : 544 пикселя
Соотношение сторон : 4:3
Частота кадров : 29,970 кадров/сек
Цветовое пространство : YUV
Субдискретизация насыщенности : 4:2:0
Битовая глубина : 8 бит
Тип развёртки : Прогрессивная
Метод сжатия : С потерями
Бит/(Пиксели*Кадры) : 0.145
Размер потока : 1,28 Гбайт (93%)
Библиотека кодирования : XviD 64

Аудио
Идентификатор : 1
Формат : MPEG Audio
Версия формата : Version 1
Профиль формата : Layer 3
Режим : Joint stereo
Расширение режима : MS Stereo
Идентификатор кодека : 55
Идентификатор кодека/Подсказка : MP3
Продолжительность : 1 ч. 47 м.
Вид битрейта : Переменный
Битрейт : 104 Кбит/сек
Каналы : 2 канала
Частота : 48,0 КГц
Метод сжатия : С потерями
Размер потока : 80,3 Мбайт (6%)
Выравнивание : Соединение по промежуткам
Продолжительность промежутка : 24 мс. (0,72 видеокадр)
Время предзагрузки промежутка : 477 мс.
Язык : English




pack Скачать Молодые шлюхи №15 через торрент https://pic1.kartinco.top/images/111/r8jti9swvg.png Скачать, смотреть онлайн Молодые шлюхи №15 бесплантно в хорошем качестве В ролях: Tanya James, Tony Pounds, Taylor Lyn, Lee Stone, Sandra Shine, Monigue Dane, Brett Rockman, Mark Ashley, Sandi Gibson, ... 9 10 1
Info! Золотая раздача, скачанное не засчитывается.
Торрент: Зарегистрирован [2012-09-17 05:59] · скачан: 344 раз
Статус: √ проверено
Размер: 1.37 GB
Как cкачать? Как скачать Молодые шлюхи №15 через торрент | UTorrent




Последний раз редактировалось: makarevich (2012-09-17 05:59), всего редактировалось 1 раз

28-11-2019 20:33  

Отключить вcю реклaмy на сайте

17-09-2012 06:09 Молодые шлюхи №15 Скачать торрент  

Релиз обновлен
Формат: AVI
Видео кодек: XviD
Аудио кодек: AC3
Видео: 1620 Кбит/сек, 544x416 (4:3), 29,970 кадров/сек, 0.239 бит/(пиксели*кадры)
Аудио: 192 Кбит/сек, 2 канала, 48,0 КГц



pack
    Дорогой пользователь! Огромная просьба, поблагодарите релизера, оцените раздачу и оставьте свои комментарий, если Вы скачали Молодые шлюхи №15 через торрент бесплатно!!
    Комментировать посты могут только пользователи прошедшие не сложную регистрацию
    Показать сообщения:    


    Молодые шлюхи №15 через торрент
    Скачать бесплатно Молодые шлюхи №15
    Молодые шлюхи №15 скачать торрент
    Молодые шлюхи №15 смотреть онлайн
    Cкачать фильм Молодые шлюхи №15 бесплатно
    Молодые шлюхи №15 скачать торрент в хорошем качестве
    Молодые шлюхи №15 смотреть онлайн бесплатно в хорошем качестве
    Вы не можете начинать темы
    Вы не можете отвечать на сообщения
    Вы не можете редактировать свои сообщения
    Вы не можете удалять свои сообщения
    Вы не можете голосовать в опросах
    Вы не можете прикреплять файлы к сообщениям
    Вы можете скачивать файлы