Доктор Стрэндж

Лицензия

Добыча

MVO

Дом дракона

1 сезон

Тор

Лицензия

Мэверик

Лицензия

Там, где раки поют

MVO

Властелин колец

1 сезон

Ultimate

pack

Рекомендуем

30

Repack

ВАЖНО

ВАЖНО

Ghostwire

RePack

jed

RePack

nioh2

RePack

RDR2

RePack

NEED FOR SPEED™ PAYBACK

RePack

скачать торрент

Кинопоиск HD

Острые козырьки 6 сезон

6 сезон

FAR CRY 6

RePack

скачать торрент

Лицензия

скачать торрент

MVO

1

1 сезон

скачать торрент

1 сезон

скачать торрент

Лицензия

  

Том и Джерри Робин Гуд и мышь-весельчак / Tom and Jerry: Robin Hood and His Merry Mouse (Спайк Брандт, Тони Червоне) [2012 г., Мультфильм, DVDRip, DUB, лицензия]

Том и Джерри Робин Гуд и мышь-весельчак через торрент pb.wtf

Размер: 698 MB | Добавлен: 9 лет назад | Торрент скачан:1691 раз
Смотреть онлайн Том и Джерри Робин Гуд и мышь-весельчак | Скачать   

01-11-2012 14:46 Том и Джерри Робин Гуд и мышь-весельчак Скачать торрент  

Том и Джерри Робин Гуд и мышь-весельчак / Tom and Jerry: Robin Hood and His Merry Mouse

Год выпуска: 2012
Страна: США
Жанр: Мультфильм
Продолжительность: 00:55:17
Перевод: Дубляж, Лицензия

Режиссер: Спайк Брандт, Тони Червоне

Премьера в мире: 28 сентября 2012



В ролях: Роб Полсен, Тодд Стэшвик, Лорейн Ньюмен

Описание: Он грабил богатых, раздавал награбленное бедным, а теперь ему отчаянно нужна помощь Тома и Джерри! Знаменитый разбойник Робин Гуд попал в лапы злого шерифа Ноттингемского, а возлюбленной Робина, деве Мэриан, грозит серьезная опасность со стороны алчного принца Джона. Сумеют ли заклятые враги Том и Джерри на время забыть о своей вражде, чтобы спасти положение? В новом полнометражном мультипликационном фильме любимая многими средневековая сказка обрела новое прочтение. Динамичный сюжет, опасные трюки, залихватские песни, и, конечно, всеобщие любимцы, воитель Томас и маленький разбойник Джерри. Один за всех и все за одного в самой бесшабашной и удивительной истории из всех, что когда-либо происходили в Шервудском лесу.

Качество: DVDRip
Формат: AVI
Видео кодек: XviD
Аудио кодек: AC3
Видео: 720x400 (1.80:1), 25 fps, XviD build 64 ~1561 kbps avg, 0.22 bit/pixel
Аудио#1: 48 kHz, AC3 Dolby Digital, 2/0 (L,R) Surround Encoded ch, ~192 kbps


General
Complete name : H:кино 2Том и Джерри Робин Гуд и мышь-весельчак.avi
Format : AVI
Format/Info : Audio Video Interleave
File size : 698 MiB
Duration : 55mn 17s
Overall bit rate : 1 764 Kbps
Writing library : VirtualDub build 32507/release

Video
ID : 0
Format : MPEG-4 Visual
Format profile : Advanced [email protected]
Format settings, BVOP : 2
Format settings, QPel : No
Format settings, GMC : No warppoints
Format settings, Matrix : Default (H.263)
Codec ID : XVID
Codec ID/Hint : XviD
Duration : 55mn 17s
Bit rate : 1 493 Kbps
Width : 720 pixels
Height : 400 pixels
Display aspect ratio : 16:9
Frame rate : 25.000 fps
Color space : YUV
Chroma subsampling : 4:2:0
Bit depth : 8 bits
Scan type : Progressive
Compression mode : Lossy
Bits/(Pixel*Frame) : 0.207
Stream size : 591 MiB (85%)
Writing library : XviD 64

Audio
ID : 1
Format : AC-3
Format/Info : Audio Coding 3
Format profile : Dolby Digital
Mode extension : CM (complete main)
Codec ID : 2000
Duration : 55mn 17s
Bit rate mode : Constant
Bit rate : 192 Kbps
Channel(s) : 2 channels
Channel positions : Front: L R
Sampling rate : 48.0 KHz
Bit depth : 16 bits
Compression mode : Lossy
Stream size : 75.9 MiB (11%)
Alignment : Split accross interleaves




Скачать Том и Джерри Робин Гуд и мышь-весельчак через торрент https://pic1.kartinco.top/images/111/og29d64p8c.jpg Скачать, смотреть онлайн Том и Джерри Робин Гуд и мышь-весельчак бесплантно в хорошем качестве Описание: Он грабил богатых, раздавал награбленное бедным, а теперь ему отчаянно нужна помощь Тома и Джерри! Знаменитый разбойник Робин Гуд ... 9.8 10 6
Info! Золотая раздача, скачанное не засчитывается.
Торрент: Зарегистрирован [2012-11-01 14:46] · скачан: 1 691 раз
Статус: √ проверено
Размер: 698 MB
Как cкачать? Как скачать Том и Джерри Робин Гуд и мышь-весельчак через торрент | UTorrent

% Раздел Тема Автор DL S | L
Иностранные мультфильмы [ 1.46 GB ] Том и Джерри: Робин Гуд и Мышь-Весельчак / Tom and Jerry: Robin Hood and His Merry Mouse | DUB + Original + Sub | BDRip-AVC DUB + Original + Sub (rus., eng. potroks Скачать
1 | 0



Последний раз редактировалось: oleg8 (2012-11-01 17:09), всего редактировалось 1 раз

28-11-2019 20:33  

Отключить вcю реклaмy на сайте

01-11-2012 16:20 Том и Джерри Робин Гуд и мышь-весельчак Скачать торрент  

Он с олдскульной рисовкой?! О_О



01-11-2012 17:00 Том и Джерри Робин Гуд и мышь-весельчак Скачать торрент  

Ништяк, детство вспомню



    Дорогой пользователь! Огромная просьба, поблагодарите релизера, оцените раздачу и оставьте свои комментарий, если Вы скачали Том и Джерри Робин Гуд и мышь-весельчак через торрент бесплатно!!
    Комментировать посты могут только пользователи прошедшие не сложную регистрацию
    Показать сообщения:    


    Том и Джерри Робин Гуд и мышь-весельчак через торрент
    Скачать бесплатно Том и Джерри Робин Гуд и мышь-весельчак
    Том и Джерри Робин Гуд и мышь-весельчак скачать торрент
    Том и Джерри Робин Гуд и мышь-весельчак смотреть онлайн
    Cкачать фильм Том и Джерри Робин Гуд и мышь-весельчак бесплатно
    Том и Джерри Робин Гуд и мышь-весельчак скачать торрент в хорошем качестве
    Том и Джерри Робин Гуд и мышь-весельчак смотреть онлайн бесплатно в хорошем качестве
    Вы не можете начинать темы
    Вы не можете отвечать на сообщения
    Вы не можете редактировать свои сообщения
    Вы не можете удалять свои сообщения
    Вы не можете голосовать в опросах
    Вы не можете прикреплять файлы к сообщениям
    Вы можете скачивать файлы