Всегда рабочее зеркало без VPN и Proxy просто перед .vidak.icu напиши любое слово или цифру, Пример http://xsca.vidak.icu

MVO

Лицензия

1 сезон

1

1 сезон

iTunes

1 сезон

13

1 сезон

Deluxe

pack

Рекомендуем

Пиратка

30

ВАЖНО

RePack

MK11

RePack

jed

RePack

fifa19

RePack

RDR2

RePack

NEED FOR SPEED™ PAYBACK

Кинопоиск HD

6 сезон

 Острые козырьки 6 сезон

Все сериалы

все сериалы на PB.wtf

RePack

FAR CRY 5

Anonymous, нам критически не хватает 2100 руб. на оплату серверов и переферии за МАЙ, помоги нам пожалуйста, вся надежда только на тебя. В благодарность мы отключим тебе всю рекламу на сайте!

×
  
Magnet ссылка

Шаг вперед 4 / Step Up Revolution (Скотт Спир) [2012 г., драма, мелодрама, музыка, BDRip 3D 1080p, DUB, лицензия]Горизонтальная анаморфная стереопара pb.wtf

Шаг вперед 4 через торрент pb.wtf

Размер: 7.77 GB | Добавлен: 9 лет 6 мес. назад | Торрент скачан:543 раза
Смотреть онлайн Шаг вперед 4 | Скачать    Ребята, помогите собрать деньги на оплату серверов!!!

30-11-2012 05:35 Шаг вперед 4 Скачать торрент  

Шаг вперед 4 / Step Up Revolution

Год выпуска: 2012
Страна: США
Жанр: драма, мелодрама, музыка
Продолжительность: 01:38:37
Перевод: Дубляж, Лицензия
Субтитры:Русские, Английские

Режиссер: Скотт Спир
Продюссер: Эрик Фейг, Дженнифер Джибгот, Гаррет Грант
Сценарий: Аманда Броди, Дуан Адлер

Мировой рейтинг IMDB 6.20 (13 334)


В ролях: Райан Гузман, Кэтрин МакКормик, Миша Гэбриел Хэмилтон, Клеопатра Коулмэн, Стивен Стэннерт, Томми Дьюи, Питер Галлахер, Майкл «Ксено» Лэнджбек, Клаудио Пинто, Николь Дабо, Александр Гаврилин, Вероника Саркисова, Кирилл Туранский, Дмитрий Курта, Анна Денисова

Описание: Эмили, дочь влиятельного бизнесмена, приезжает в Майами с намерением стать профессиональной танцовщицей, но влюбляется в Шона — юношу, чья танцевальная труппа устраивает музыкальные флэшмобы. Команда, называющаяся MOB, участвует в конкурсе с внушительным денежным призом, а тем временем отец Эмили намеревается перестроить родной район ребят и переселить тысячи людей. Эмили присоединяется к танцорам и организует протестные мобы, рискуя не осуществить мечту, но сражаясь за нечто более важное.

Доп. информация: Формат 3D: Half SideBySide / Горизонтальная анаморфная стереопара

Качество: BDRip 1080p
Формат: MKV
Видео кодек: H.26x
Аудио кодек: DTS
Видео: AVC, 8090 Кбит/сек, 1920x1080 (16:9), 23,976 кадр/сек
Аудио#1: DTS, ~1510 Кбит/сек, 6 каналов, 48,0 КГц - Russian
Аудио#2: DTS, ~1510 Кбит/сек, 6 каналов, 48,0 КГц - English

Общее
Уникальный идентификатор : 170570859992269789119766420007936079931 (0x8052C0B04906720E9E0146E7A164383B)
Полное имя : D:xxx3DStep.Up.Revolution.2012.3D.1080p.Bluray.H-SBS.DTS.mkv
Формат : Matroska
Версия формата : Version 3 / Version 2
Размер файла : 7,77 Гбайт
Продолжительность : 1 ч. 38 м.
Общий поток : 11,3 Мбит/сек
Дата кодирования : UTC 2012-11-30 01:27:01
Программа кодирования : mkvmerge v5.8.0 ('No Sleep / Pillow') built on Sep 2 2012 15:37:04
Библиотека кодирования : libebml v1.2.3 + libmatroska v1.3.0

Видео
Идентификатор : 1
Формат : AVC
Формат/Информация : Advanced Video Codec
Профиль формата : High@L4.1
MultiView_Count : 2
MultiView_Layout : Side by Side (left eye first)
Параметр CABAC формата : Да
Параметр ReFrames формата : 4 кадра
Идентификатор кодека : V_MPEG4/ISO/AVC
Продолжительность : 1 ч. 38 м.
Битрейт : 8039 Кбит/сек
Ширина : 1920 пикселей
Высота : 1080 пикселей
Соотношение сторон : 16:9
Режим частоты кадров : Постоянный
Частота кадров : 23,962 кадра/сек
Частота кадров в оригинале : 23,976 кадра/сек
Цветовое пространство : YUV
Субдискретизация насыщенности : 4:2:0
Битовая глубина : 8 бит
Тип развёртки : Прогрессивная
Бит/(Пиксели*Кадры) : 0.162
Размер потока : 5,54 Гбайт (71%)
Заголовок : Step.Up.Revolution.2012.3D.1080p.Bluray.H-SBS.X264.DL-HDChina
Default : Да
Forced : Нет

Аудио #1
Идентификатор : 2
Формат : DTS
Формат/Информация : Digital Theater Systems
Профиль формата : ES
Режим : 16
Параметр Endianness формата : Big
Идентификатор кодека : A_DTS
Продолжительность : 1 ч. 38 м.
Вид битрейта : Постоянный
Битрейт : 1509 Кбит/сек
Каналы : 6 каналов
Расположение каналов : Front: L C R, Side: L R, LFE
Частота : 48,0 КГц
Битовая глубина : 24 бит
Метод сжатия : С потерями
Задержка видео : 8 мс.
Размер потока : 1,04 Гбайт (13%)
Заголовок : DTS 5.1 @ 1.5 Mbps – Дубляж (Blu-ray)
Язык : Russian
Default : Нет
Forced : Нет

Аудио #2
Идентификатор : 3
Формат : DTS
Формат/Информация : Digital Theater Systems
Режим : 16
Параметр Endianness формата : Big
Идентификатор кодека : A_DTS
Продолжительность : 1 ч. 38 м.
Вид битрейта : Постоянный
Битрейт : 1509 Кбит/сек
Каналы : 6 каналов
Расположение каналов : Front: L C R, Side: L R, LFE
Частота : 48,0 КГц
Битовая глубина : 24 бит
Метод сжатия : С потерями
Задержка видео : 8 мс.
Размер потока : 1,04 Гбайт (13%)
Язык : English
Default : Нет
Forced : Нет

Текст #1
Идентификатор : 4
Формат : UTF-8
Идентификатор кодека : S_TEXT/UTF8
Идентификатор кодека/Информация : UTF-8 Plain Text
Заголовок : Blu-ray
Язык : Russian
Default : Нет
Forced : Нет

Текст #2
Идентификатор : 5
Формат : UTF-8
Идентификатор кодека : S_TEXT/UTF8
Идентификатор кодека/Информация : UTF-8 Plain Text
Язык : English
Default : Нет
Forced : Нет

Меню
00:00:00.000 : en:00:00:00.000
00:05:35.585 : en:00:05:36.836
00:07:23.985 : en:00:07:25.236
00:11:45.664 : en:00:11:46.915
00:13:59.214 : en:00:14:00.465
00:16:53.262 : en:00:16:54.513
00:20:21.429 : en:00:20:22.680
00:23:14.977 : en:00:23:16.228
00:27:36.739 : en:00:27:37.990
00:32:29.072 : en:00:32:30.323
00:36:57.132 : en:00:36:58.383
00:39:48.136 : en:00:39:49.387
00:42:42.227 : en:00:42:43.478
00:45:48.830 : en:00:45:50.081
00:49:35.890 : en:00:49:37.141
00:56:34.391 : en:00:56:35.642
00:58:42.728 : en:00:58:43.979
01:02:45.846 : en:01:02:47.097
01:07:04.688 : en:01:07:05.939
01:11:51.140 : en:01:11:52.391
01:15:33.821 : en:01:15:35.072
01:17:21.596 : en:01:17:22.847
01:26:00.614 : en:01:26:01.865
01:31:30.944 : en:01:31:32.195


Шаг вперед 4 скачать торрент


pb.wtf



Скачать Шаг вперед 4 через торрент http://i48.fastpic.ru/big/2012/1129/0d/95f8df7981e183173b1b81459015ce0d.jpg Скачать, смотреть онлайн Шаг вперед 4 бесплантно в хорошем качестве Описание: Эмили, дочь влиятельного бизнесмена, приезжает в Майами с намерением стать профессиональной танцовщицей, но влюбляется в Шона — ... 9.8 10 6
Info! Золотая раздача, скачанное не засчитывается.
Торрент: Зарегистрирован [2012-11-30 05:35] · скачан: 543 раз
Статус: √ проверено
Размер: 7.77 GB
Как cкачать? Как скачать Шаг вперед 4 через торрент | UTorrent



Последний раз редактировалось: Userman4ik (2012-11-30 10:33), всего редактировалось 5 раз(а)

28-11-2019 20:33  

Отключить всю рекламу на сайте

30-11-2012 05:46 Шаг вперед 4 Скачать торрент  

Вообще респект за 3Dшку
надеюсь фильм отличный)))pb.wtf



09-01-2013 18:23 Шаг вперед 4 Скачать торрент  

ааааггрррххх DTS какого хрена?(pb.wtf



    Дорогой пользователь! Огромная просьба, поблагодарите релизера, оцените раздачу и оставьте свои комментарий, если Вы скачали Шаг вперед 4 через торрент бесплатно!
    Комментировать посты могут только пользователи прошедшие не сложную регистрацию
    Показать сообщения:    

    Шаг вперед 4 через торрент
    Скачать бесплатно Шаг вперед 4
    Шаг вперед 4 скачать торрент
    Шаг вперед 4 смотреть онлайн
    Cкачать фильм Шаг вперед 4 бесплатно
    Шаг вперед 4 скачать торрент в хорошем качестве
    Шаг вперед 4 смотреть онлайн бесплатно в хорошем качестве


    Вы не можете начинать темы
    Вы не можете отвечать на сообщения
    Вы не можете редактировать свои сообщения
    Вы не можете удалять свои сообщения
    Вы не можете голосовать в опросах
    Вы не можете прикреплять файлы к сообщениям
    Вы можете скачивать файлы