MEGA NEWS Получи личный уникальный адрес сайта и защити себя от блокировок. Внимание количество ограничено!!!

iTunes

1+1

iTunes

мы

iTunes

1

iTunes

Чернобыль

iTunes

Ральф против интернета

Лицензия

ПШазам

Лицензия

Игра престолов

Лицензия

30
pack

ВАЖНО

!!Акция!!

Alien_RageХит недели

RePack

Resident Evil 21

ИГРА 18+

pack

RePack

Metro:Exodus

!!Акция!!

Alien_Rage

RePack

fifa19

RePack

Assassins Creed: Odyssey

RePack

NEED FOR SPEED™ PAYBACK

3 сезон

9 сезон

Бесстыжие 9 сезон

Все сериалы

все сериалы на PB.wtf

RePack

FAR CRY 5
Ребята, катастрофически не хватает 1900р. для оплаты серверов за АВГУСТ (всвязи с блокировками трафик упал в 3 раза), 1-2р., выручайте.
  

Папохищение / Dadnapped (Пол Хоэн) [2009 г., боевик, комедия, приключения, DVDRip, DUB, лицензия] pb.wtf

Папохищение через торрент pb.wtf

Размер: 1.37 GB | Добавлен: 6 лет 10 мес. назад | Торрент скачан:25 раз
Скачать  

17-12-2012 15:01 Папохищение Скачать торрент  

Папохищение / Dadnapped

Год выпуска: 2009
Страна: США
Жанр: боевик, комедия, приключения
Продолжительность: 01:24:00
Перевод: Дубляж, Лицензия

Режиссер: Пол Хоэн
Продюссер: Дуглас Слоун

Бюджет: $4 500 000
Премьера в мире: 16 февраля 2009
Премьера в России :23 февраля 2011

Мировой рейтинг IMDB 4.70 (1 114)


В ролях: Эмили Осмент, Дэвид Генри, Джейсон Эрлз, Джонатан Кельтц, Мойзес Ариас, Дэнзел Уитакер, Чарльз Халфорд, Фил Льюис, Джордж Ньюберн, Дженнифер Стоун

Описание: Школьница Мелисса — дочь Нила Морриса, знаменитого автора бестселлеров о приключениях супергероя Трип Зума, — с нетерпением ждет каникул, чтобы отправиться с отцом в путешествие. По пути они заворачивают в городок, где в честь писателя устраивается прием. В этот же день его похищают двое фанатов, один из которых — начинающий писатель, решивший использовать Нила в качестве редактора своей будущей книги...

Качество: DVDRip
Формат: AVI
Видео кодек: XviD
Аудио кодек: AC3
Видео: Xvid, 704x384(1.85:1), 25 000 fps,1986 Kb/s
Аудио#1: Ac-3,48.0 KHz,16 bits, 2 каналов,448 кбрs






General
Полное имя : D:торентыDadnapped.epple.nef..avi
Формат : AVI
Формат/Информация : Audio Video Interleave
Размер файла : 1.37 GiB
Продолжительность : 1h 20mn
Общий поток : 2 444 Kbps
Название фильма : Dadnapped (2009)
Режиссёр : D!mka
Программа кодирования : VirtualDubMod 1.5.10.2 (build 2540/release)
Библиотека кодирования : VirtualDub build 30009/release

Video
Идентификатор : 0
Формат : MPEG-4 Visual
Профиль формата : Advanced Simple@L5
Параметр BVOP формата : 2
Параметр QPel формата : No
Параметр GMC формата : No warppoints
Параметр матрицы формата : Default (H.263)
Режим смешивания : Packed bitstream
Идентификатор кодека : XVID
Идентификатор кодека/Подсказка : XviD
Продолжительность : 1h 20mn
Битрейт : 1 986 Kbps
Ширина : 704 pixels
Высота : 384 pixels
Соотношение сторон : 1.85:1
Частота кадров : 25.000 fps
Цветовое пространство : YUV
Субдискретизация насыщенности : 4:2:0
Битовая глубина : 8 bits
Тип развёртки : Progressive
Метод сжатия : Lossy
Бит/(Пиксели*Кадры) : 0.294
Размер потока : 1.11 GiB (81%)
Библиотека кодирования : XviD 1.2.1 (UTC 2008-12-04)

Audio
Идентификатор : 1
Формат : AC-3
Формат/Информация : Audio Coding 3
Расширение режима : CM (complete main)
Параметр Endianness формата : Big
Идентификатор кодека : 2000
Продолжительность : 1h 20mn
Вид битрейта : Constant
Битрейт : 448 Kbps
Каналы : 2 channels
Расположение каналов : Front: L R
Частота : 48.0 KHz
Битовая глубина : 16 bits
Метод сжатия : Lossy
Размер потока : 257 MiB (18%)
Выравнивание : Aligned on interleaves
Продолжительность промежутка : 40 ms (1.00 video frame)
Время предзагрузки промежутка : 512 ms


Папохищение скачать торрент


pb.wtf



Скачать Папохищение через торрент http://pic.kartinco.top/images/1/me7wsu89x1.jpg Скачать фильм Папохищение через торрент бесплантно в хорошем качестве Описание: Школьница Мелисса — дочь Нила Морриса, знаменитого автора бестселлеров о приключениях супергероя Трип Зума, — с нетерпением ждет ... 5 10 1
Info! Золотая раздача, скачанное не засчитывается.
Торрент: Зарегистрирован [2012-12-17 15:01] · скачан: 25 раз
Статус: √ проверено
Размер: 1.37 GB
Как cкачать? Как скачать Папохищение через торрент | qTorrent


>> Регистрируемся здесь <<






Отзывы и комментарии о схеме читаем и пишем здесь: ---> Отзывы и комментарии о схеме

Новые благодарочки в телеграм довольных пользователей:
скриншот   скриншот   скриншот   скриншот   скриншот

17-12-2012 15:18 Папохищение Скачать торрент  

ALIK1989
Стань на раздачуpb.wtf



17-12-2012 15:28 Папохищение Скачать торрент  

Ага вот я на раздачу уже раздаюpb.wtf



    Дорогой пользователь! Огромная просьба, поблагодарите релизера, оцените раздачу и оставьте свои комментарий, если Вы скачали Папохищение через торрент бесплатно! Внесите свою лепту в развитие PiratBit!
    Комментировать посты могут только пользователи прошедшие не сложную регистрацию
    Показать сообщения:    

    Папохищение через торрент
    Скачать бесплатно Папохищение
    Папохищение скачать торрент
    Папохищение смотреть онлайн
    Cкачать фильм Папохищение бесплатно
    Папохищение скачать торрент в хорошем качестве
    Папохищение смотреть онлайн бесплатно в хорошем качестве


    Вы не можете начинать темы
    Вы не можете отвечать на сообщения
    Вы не можете редактировать свои сообщения
    Вы не можете удалять свои сообщения
    Вы не можете голосовать в опросах
    Вы не можете прикреплять файлы к сообщениям
    Вы можете скачивать файлы