Доктор Стрэндж

Лицензия

Добыча

MVO

Дом дракона

1 сезон

Тор

Лицензия

Мэверик

Лицензия

Там, где раки поют

MVO

Властелин колец

1 сезон

Ultimate

pack

Рекомендуем

30

Repack

ВАЖНО

ВАЖНО

Ghostwire

RePack

jed

RePack

nioh2

RePack

RDR2

RePack

NEED FOR SPEED™ PAYBACK

RePack

скачать торрент

Кинопоиск HD

Острые козырьки 6 сезон

6 сезон

FAR CRY 6

RePack

скачать торрент

Лицензия

скачать торрент

MVO

1

1 сезон

скачать торрент

1 сезон

скачать торрент

Лицензия

  

Столкновение Земли / Collision Earth (Пол Зиллер) [2011 г., фантастика, боевик, триллер, HDRip, MVO [TB3]]

Столкновение Земли через торрент pb.wtf

Раздают: 1 [ 0 KB/s ]
Размер: 1.37 GB | Добавлен: 9 лет 9 мес. назад | Торрент скачан:276 раз
Смотреть онлайн | Скачать   

21-12-2012 19:53 Столкновение Земли Скачать торрент  

Столкновение Земли / Collision Earth

Год выпуска: 2011
Страна: Канада
Жанр: фантастика, боевик, триллер
Продолжительность: 01:30:18
Перевод: Профессиональный многоголосый [TB3]

Режиссер: Пол Зиллер
Продюссер: Джон Принц, Жози Бернард, Том Берри
Сценарий: Ryan Landels

Мировой рейтинг IMDB 3.50 (342)


В ролях: Кирк Асеведо, Дайан Фарр, Чад Кровчук, Джессика Паркер Кеннеди, Адам Рейд, Эндрю Эйрли, Дэвид Льюис, Дуглас Чэпман, Кэтрин Лок Хэггквист, Кеван Охтци

Описание: Космический корабль выброшен с орбиты и направлен на столкновение с Землей. Опальный ученый должен попытаться спасти планету.

Качество: HDRip
Формат: AVI
Видео кодек: XviD
Аудио кодек: AC3
Видео: 720x400 (1.80:1), 23.976 fps, XviD build 63 ~1769 kbps avg, 0.26 bit/pixel
Аудио#1: 48 kHz, AC3 Dolby Digital, 2/0 (L,R) ch, ~192 kbps [Russian]
Аудио#2: 48 kHz, AC3 Dolby Digital, 2/0 (L,R) ch, ~192 kbps [English]

General
Complete name : D:КиноStolknovenije.zemli.2012.P.HDRip.avi
Format : AVI
Format/Info : Audio Video Interleave
File size : 1.37 GiB
Duration : 1h 30mn
Overall bit rate : 2 168 Kbps
Writing application : VirtualDubMod 1.5.10.3 | www.virtualdub-fr.org || (build 2550/release)
Writing library : VirtualDubMod build 2550/release

Video
ID : 0
Format : MPEG-4 Visual
Format profile : Advanced [email protected]
Format settings, BVOP : 2
Format settings, QPel : No
Format settings, GMC : No warppoints
Format settings, Matrix : Default (H.263)
Codec ID : XVID
Codec ID/Hint : XviD
Duration : 1h 30mn
Bit rate : 1 770 Kbps
Width : 720 pixels
Height : 400 pixels
Display aspect ratio : 16:9
Frame rate : 23.976 fps
Color space : YUV
Chroma subsampling : 4:2:0
Bit depth : 8 bits
Scan type : Progressive
Compression mode : Lossy
Bits/(Pixel*Frame) : 0.256
Stream size : 1.12 GiB (82%)
Writing library : XviD 63

Audio #1
ID : 1
Format : AC-3
Format/Info : Audio Coding 3
Mode extension : CM (complete main)
Format settings, Endianness : Big
Codec ID : 2000
Duration : 1h 30mn
Bit rate mode : Constant
Bit rate : 192 Kbps
Channel(s) : 2 channels
Channel positions : Front: L R
Sampling rate : 48.0 KHz
Bit depth : 16 bits
Compression mode : Lossy
Stream size : 124 MiB (9%)
Alignment : Split accross interleaves
Interleave, duration : 42 ms (1.00 video frame)
Interleave, preload duration : 500 ms

Audio #2
ID : 2
Format : AC-3
Format/Info : Audio Coding 3
Mode extension : CM (complete main)
Format settings, Endianness : Big
Codec ID : 2000
Duration : 1h 30mn
Bit rate mode : Constant
Bit rate : 192 Kbps
Channel(s) : 2 channels
Channel positions : Front: L R
Sampling rate : 48.0 KHz
Bit depth : 16 bits
Compression mode : Lossy
Stream size : 124 MiB (9%)
Alignment : Split accross interleaves
Interleave, duration : 42 ms (1.00 video frame)


Столкновение Земли скачать торрент





Скачать Столкновение Земли через торрент http://i51.fastpic.ru/big/2012/1221/04/a659ae5a12788363ac13642dec463104.png Скачать, смотреть онлайн Столкновение Земли бесплантно в хорошем качестве Описание: Космический корабль выброшен с орбиты и направлен на столкновение с Землей. Опальный ученый должен попытаться спасти ... 5 10 1
Info! Золотая раздача, скачанное не засчитывается.
Торрент: Зарегистрирован [2012-12-21 19:53] · скачан: 276 раз
Статус: √ проверено
Размер: 1.37 GB
Как cкачать? Как скачать Столкновение Земли через торрент | UTorrent

28-11-2019 20:33  


Отключить вcю реклaмy на сайте, в т.ч. и в плеере онлайн просмотра!

21-12-2012 20:20 Столкновение Земли Скачать торрент  

описание четкое



21-12-2012 21:58 Столкновение Земли Скачать торрент  

Да и правда , достаточно описания



22-12-2012 11:15 Столкновение Земли Скачать торрент  

Говно полнейшее :jest3: :jest3: :jest3: :jest3: :jest3:



23-12-2012 18:46 Столкновение Земли Скачать торрент  

Вот сволочи, на Постере-то явно "СОЮЗ".



24-12-2012 06:18 Столкновение Земли Скачать торрент  

Да, на постере "СОЮЗ" однозначно. За раздачу конечно спасибо, посмеялся И почему создатели подобных фильмов, пропускавшие в школе уроки физики, думают что зрители такие же дубы Да, кстати, тема таинственных поджигателей улетевших автомобилей - не раскрыта!!!



    Дорогой пользователь! Огромная просьба, поблагодарите релизера, оцените раздачу и оставьте свои комментарий, если Вы скачали Столкновение Земли через торрент бесплатно!!
    Комментировать посты могут только пользователи прошедшие не сложную регистрацию
    Показать сообщения:    


    Столкновение Земли через торрент
    Скачать бесплатно Столкновение Земли
    Столкновение Земли скачать торрент
    Столкновение Земли смотреть онлайн
    Cкачать фильм Столкновение Земли бесплатно
    Столкновение Земли скачать торрент в хорошем качестве
    Столкновение Земли смотреть онлайн бесплатно в хорошем качестве
    Вы не можете начинать темы
    Вы не можете отвечать на сообщения
    Вы не можете редактировать свои сообщения
    Вы не можете удалять свои сообщения
    Вы не можете голосовать в опросах
    Вы не можете прикреплять файлы к сообщениям
    Вы можете скачивать файлы