Ссылка на приватное зеркало нашего сайта всего за 1$. Внимание количество ограничено!!!

2 сезон

iTunes

1 сезон

1

2 сезон

2 сезон

iTunes

1 сезон

RePack

30

Ultimate

ВАЖНО

ИГРА 18+

pack

RePack

MK11
pack

Забери бонус

RePack

jed

!!Акция!!

Alien_Rage

RePack

fifa19

RePack

Assassins Creed: Odyssey

RePack

NEED FOR SPEED™ PAYBACK

4 сезон

9 сезон

Бесстыжие 9 сезон

Все сериалы

все сериалы на PB.wtf

RePack

FAR CRY 5
  

Слова / The Words (Брайан Клагман, Ли Стернтал) [2012 г., драма, мелодрама, BDRip 1080p, DUB, лицензия] pb.wtf

Слова через торрент pb.wtf

Размер: 14.43 GB | Добавлен: 7 лет 10 мес. назад | Торрент скачан:105 раз
Скачать  

25-01-2013 12:36 Слова Скачать торрент  

Слова / The Words


Год выпуска: 2012
Страна: США
Жанр: драма, мелодрама
Продолжительность: 01:42:41
Перевод: Дубляж, Лицензия
Режиссер: Брайан Клагман, Ли Стернтал
Продюссер: Майкл Бенаройя, Татьяна Келли, Джеймс М. Ян
Сценарий: Брайан Клагман, Ли Стернтал
Бюджет: $6 000 000
Премьера в мире: 27 января 2012
PG-13 - детям до 13 лет просмотр не желателен
IMDb: 6.80 (14 769)

В ролях: Брэдли Купер, Джереми Айронс, Оливия Уайлд, Зои Салдана, Деннис Куэйд, Брайан Клагман, Джон Ханна, Вито Филлипо, Майкл МакКин, Люсинда Дэвис, Владимир Антоник, Михаил Тихонов, Илья Бледный
Описание: Рори Джэнсен — писатель, который наконец обретает долгожданную известность, но его роман-бестселлер оказывается написан другим человеком, которому он теперь должен заплатить высокую цену за украденные у него жизнь и работу.
Доп. информация: Сохранены оригинальные чаптеры, как на Blu-Ray.
Качество: BDRip 1080p
Формат: MKV
Видео кодек: H.264
Аудио кодек: DTS, AC3
Видео: H264, 1920x1040, 23.98fps, 18.3 Mbps
Аудио1: Russian, DTS, 755 Kb/s (6 ch)
Аудио2: English, AC3, 640 Kb/s (6 ch)


General
Complete name : C:ФильмыSlova.2012.BDRip.1080p.mkv
Format : Matroska
File size : 14.4 GiB
Duration : 1h 42mn
Overall bit rate : 20.1 Mbps
Movie name : UnionGang.tv
Encoded date : UTC 2010-02-22 21:41:31
Writing application : mkvmerge v5.9.0 ('On The Loose') built on Dec 9 2012 15:37:01
Writing library : libebml v1.3.0 + libmatroska v1.4.0

Video
ID : 1
Format : AVC
Format/Info : Advanced Video Codec
Format profile : High@L4.1
Format settings, CABAC : Yes
Format settings, ReFrames : 4 frames
Muxing mode : Container profile=Unknown@4.1
Codec ID : V_MPEG4/ISO/AVC
Duration : 1h 42mn
Bit rate : 18.3 Mbps
Width : 1 920 pixels
Height : 1 040 pixels
Display aspect ratio : 16:9
Frame rate : 23.976 fps
Resolution : 24 bits
Colorimetry : 4:2:0
Scan type : Progressive
Bits/(Pixel*Frame) : 0.383
Stream size : 13.1 GiB (91%)
Writing library : x264 core 125 r2200 999b753
Encoding settings : cabac=1 / ref=4 / deblock=1:-3:-3 / analyse=0x3:0x113 / me=tesa / subme=11 / psy=1 / psy_rd=0.95:0.00 / mixed_ref=1 / me_range=16 / chroma_me=1 / trellis=2 / 8x8dct=1 / cqm=0 / deadzone=21,11 / fast_pskip=0 / chroma_qp_offset=-2 / threads=12 / lookahead_threads=2 / sliced_threads=0 / nr=0 / decimate=0 / interlaced=0 / bluray_compat=0 / constrained_intra=0 / bframes=8 / b_pyramid=2 / b_adapt=2 / b_bias=0 / direct=3 / weightb=1 / open_gop=0 / weightp=2 / keyint=250 / keyint_min=23 / scenecut=40 / intra_refresh=0 / rc=crf / mbtree=0 / crf=17.6 / qcomp=0.65 / qpmin=0 / qpmax=69 / qpstep=4 / ip_ratio=1.40 / pb_ratio=1.30 / aq=1:0.80

Audio #1
ID : 2
Format : DTS
Format/Info : Digital Theater Systems
Codec ID : A_DTS
Duration : 1h 42mn
Bit rate mode : Constant
Bit rate : 755 Kbps
Channel(s) : 6 channels
Channel positions : Front: L C R, Surround: L R, LFE
Sampling rate : 48.0 KHz
Resolution : 24 bits
Stream size : 554 MiB (4%)
Language : Russian

Audio #2
ID : 3
Format : AC-3
Format/Info : Audio Coding 3
Codec ID : A_AC3
Duration : 1h 42mn
Bit rate mode : Constant
Bit rate : 640 Kbps
Channel(s) : 6 channels
Channel positions : Front: L C R, Surround: L R, LFE
Sampling rate : 48.0 KHz
Stream size : 470 MiB (3%)

Text #1
ID : 4
Format : UTF-8
Codec ID : S_TEXT/UTF8
Codec ID/Info : UTF-8 Plain Text
Language : Russian

Text #2
ID : 5
Format : UTF-8
Codec ID : S_TEXT/UTF8
Codec ID/Info : UTF-8 Plain Text

Text #3
ID : 6
Format : UTF-8
Codec ID : S_TEXT/UTF8
Codec ID/Info : UTF-8 Plain Text
Title : SDH

Menu
00:00:00.000 : en:00:00:00.000
00:03:57.988 : en:00:03:57.988
00:08:39.144 : en:00:08:39.144
00:14:33.456 : en:00:14:33.456
00:19:25.623 : en:00:19:25.623
00:25:23.981 : en:00:25:23.981
00:31:36.228 : en:00:31:36.228
00:34:43.164 : en:00:34:43.164
00:41:16.724 : en:00:41:16.724
00:45:40.780 : en:00:45:40.780
00:50:32.696 : en:00:50:32.696
00:56:45.569 : en:00:56:45.569
01:04:45.256 : en:01:04:45.256
01:11:44.050 : en:01:11:44.050
01:19:55.916 : en:01:19:55.916
01:28:32.557 : en:01:28:32.557

pb.wtf



Скачать Слова через торрент http://i53.fastpic.ru/big/2013/0123/43/d9827a1c7d19dd29eafb798a7967f343.jpg Скачать фильм Слова через торрент бесплантно в хорошем качестве Описание: Рори Джэнсен — писатель, который наконец обретает долгожданную известность, но его роман-бестселлер оказывается написан другим ... 6 10 1
Info! Золотая раздача, скачанное не засчитывается.
Торрент: Зарегистрирован [2013-01-25 12:36] · скачан: 105 раз
Статус: √ проверено
Размер: 14.43 GB
Как cкачать? Как скачать Слова через торрент | qTorrent

% Раздел Тема Автор DL S | L
Аниме [HD 720p, 1080p] [ 3.3 GB ] Сад изящных слов / Сад слов / The Garden of Words / Kotonoha no Niwa [2013 аниме мультфильм BDRip 1080p] DVO еnvy Скачать
2 | 0
Арт-хаус и авторское кино [ 5.29 GB ] Тайная жизнь слов / The Secret Life of Words [2005 BDRip 720p] MVO DVO Bolala Скачать
1 | 0
Фильмы (Blu-ray, BD-Remux, HDDVD) [ 20.34 GB ] Слова / The Words [2012 BDRemux 1080p] [Расширенная версия / Extended Cut] Dub + VO [edos1965] Subs + Original Eng Ворон Скачать
1 | 0
Фильмы 2012 [ 2.19 GB ] Слова / The Words [2012 BDRip-AVC лицензия] МАКС1 Скачать
1 | 0
Фильмы 2012 [ 2.05 GB ] Слова / The Words [2012 HDRip DUB лицензия] Seedtank Скачать
1 | 0
Фильмы (DVD фильмы) [ 6.91 GB ] Слова / The Words [2012 DVD9] R5 voovaz Скачать
1 | 0
Фильмы 2012 [ 1.36 GB ] Слова / The Words [2012 HDRip DUB лицензия] Seedtank Скачать
1 | 0

28-11-2019 20:33  

Отключить всю рекламу на сайте

25-01-2013 19:06 Слова Скачать торрент  

поглядел..нормальный фильм.не напрягает особо.. фильм не развлекательный. если кому нравятся серьезные фильмы это для вас.pb.wtf



26-01-2013 19:15 Слова Скачать торрент  

Отличный фильм. Спасибо.pb.wtf



    Дорогой пользователь! Огромная просьба, поблагодарите релизера, оцените раздачу и оставьте свои комментарий, если Вы скачали Слова через торрент бесплатно! Внесите свою лепту в развитие PiratBit!
    Комментировать посты могут только пользователи прошедшие не сложную регистрацию
    Показать сообщения:    

    Слова через торрент
    Скачать бесплатно Слова
    Слова скачать торрент
    Слова смотреть онлайн
    Cкачать фильм Слова бесплатно
    Слова скачать торрент в хорошем качестве
    Слова смотреть онлайн бесплатно в хорошем качестве


    Вы не можете начинать темы
    Вы не можете отвечать на сообщения
    Вы не можете редактировать свои сообщения
    Вы не можете удалять свои сообщения
    Вы не можете голосовать в опросах
    Вы не можете прикреплять файлы к сообщениям
    Вы можете скачивать файлы