Доктор Стрэндж

Лицензия

Добыча

Дубляж

Дом дракона

1 сезон

Тор

Дубляж

В эфире

Дубляж

Там, где раки поют

MVO

Властелин колец

1 сезон

Deluxe

pack

Рекомендуем

30

Пиратка

ВАЖНО

ВАЖНО

Ghostwire

Пиратка

jed

RePack

nioh2

RePack

RDR2

RePack

NEED FOR SPEED™ PAYBACK

RePack

скачать торрент

Кинопоиск HD

Острые козырьки 6 сезон

6 сезон

FAR CRY 6

RePack

скачать торрент

Лицензия

скачать торрент

MVO

1

1 сезон

скачать торрент

1 сезон

скачать торрент

Лицензия

  

Под прицелом / Pressed (Джастин Доннелли) [2011 г., Триллер, криминал, детектив, BDRip, MVO, лицензия]

Под прицелом через торрент pb.wtf

Размер: 1.46 GB | Добавлен: 9 лет 10 мес. назад | Торрент скачан:268 раз
Смотреть онлайн | Скачать   

30-01-2013 15:53 Под прицелом Скачать торрент  


Под прицелом / Pressed
Год выпуска: 2011
Страна: Канада
Жанр: Триллер, криминал, детектив
Продолжительность: 01:45:05
Перевод: Профессиональный многоголосый, Лицензия

Режиссер: Джастин Доннелли

Бюджет: CAD 3 200 000
Премьера в мире: 23 января 2012



В ролях: Люк Госс, Тайлер Джонстон, Майкл Эклунд, Джеффри Баллард, Крэйг Станьетта, Эндрю Хедж, Р. Камерон Гордон, Эрика Кэрролл, Этан Сойер

Описание: Парочка угонщиков машин, Джэсси и Сэм обнаруживают кое-что на заднем сидении автомобиля, что может круто изменить их жизнь. Брайан, не знакомый Джэсси и Сэму, заключает коммерческую сделку, которая поможет ему снова забраться на вершину одной из крупнейших инвестиционных фирм.

Качество: BDRip [Blu-Ray Remux (1080p)]
Формат: AVI
Видео кодек: XviD
Аудио кодек: AC3
Видео: 720x304 (2.37:1), 23.976 fps, XviD build 64 ~1532 kbps avg, 0.29 bit/pixel
Аудио: 48 kHz, AC3 Dolby Digital, 3/2 (L,C,R,l,r) + LFE ch, ~448 kbps


Авто рипа:
скриншот  скриншот  
скриншот  скриншот  
скриншот  скриншот  





Общее:
Полное имя: D:Для сайтаRip'spod_pricelom_BDRip.avi
Формат: AVI
Формат/Информация: Audio Video Interleave
Размер файла: 1,46 Гбайт
Продолжительность: 1 ч. 45 м.
Общий поток: 1989 Кбит/сек
Программа кодирования: VirtualDubMod 1.5.10.3 | www.virtualdub-fr.org || (build 2550/release)
Библиотека кодирования: VirtualDubMod build 2550/release

Видео:
Идентификатор: 0
Формат: MPEG-4 Visual
Профиль формата: Advanced [email protected]
Параметр BVOP формата: 2
Параметр QPel формата: Нет
Параметр GMC формата: Без точки перехода
Параметр матрицы формата: Default (H.263)
Идентификатор кодека: XVID
Идентификатор кодека/Подсказка: XviD
Продолжительность: 1 ч. 45 м.
Битрейт: 1532 Кбит/сек
Ширина: 720 пикс.
Высота: 304 пикс.
Соотношение сторон: 2,35:1
Частота кадров: 23,976 кадр/сек
Цветовое пространство: YUV
Подвыборка цветности: 4:2:0
Битовая глубина: 8 бит
Тип развёртки: Прогрессивная
Метод сжатия: С потерями
Бит/(Пиксели*Кадры): 0.292
Размер потока: 1,12 Гбайт (77%)
Библиотека кодирования: XviD 64

Аудио:
Идентификатор: 1
Формат: AC-3
Формат/Информация: Audio Coding 3
Расширение режима: CM (complete main)
Идентификатор кодека: 2000
Продолжительность: 1 ч. 45 м.
Вид битрейта: Постоянный
Битрейт: 448 Кбит/сек
Каналы: 6 каналов
Расположение каналов: Front: L C R, Side: L R, LFE
Частота: 48,0 КГц
Битовая глубина: 16 бит
Метод сжатия: С потерями
Размер потока: 337 Мбайт (23%)
Выравнивание: Разделение по промежуткам
Продолжительность промежутка: 42 мс. (1,00 видеокадр)
Время предзагрузки промежутка: 500 ms




Скачать Под прицелом через торрент http://i51.fastpic.ru/big/2013/0130/d8/d88f02ca6854bf373c4bd26ad37db7d8.png Скачать, смотреть онлайн Под прицелом бесплантно в хорошем качестве Описание: Парочка угонщиков машин, Джэсси и Сэм обнаруживают кое-что на заднем сидении автомобиля, что может круто изменить их жизнь. ... 6 10 1
Info! Золотая раздача, скачанное не засчитывается.
Торрент: Зарегистрирован [2013-01-30 15:53] · скачан: 268 раз
Статус: √ проверено
Размер: 1.46 GB
Как cкачать? Как скачать Под прицелом через торрент | UTorrent

% Раздел Тема Автор DL S | L
Фильмы (DVD фильмы) [ 3.7 GB ] Под прицелом / Pressed | | Под прицелом / Pressed (Джастин Доннелли / Justin Donnelly voovaz Скачать
1 | 0
Фильмы 2011 [ 2.04 GB ] Под прицелом / Pressed | MVO + Оригинал | BDRip, MVO + Оригинал bogyn Скачать
1 | 0



Последний раз редактировалось: Dean24 (2013-01-30 16:15), всего редактировалось 1 раз

28-11-2019 20:33  


Отключить вcю реклaмy на сайте, в т.ч. и в плеере онлайн просмотра!

30-01-2013 16:11 Под прицелом Скачать торрент  

Dean24
Максимальный размер постера 700х700



30-01-2013 16:15 Под прицелом Скачать торрент  

-=Cherry=-
Исправил



    Дорогой пользователь! Огромная просьба, поблагодарите релизера, оцените раздачу и оставьте свои комментарий, если Вы скачали Под прицелом через торрент бесплатно!!
    Комментировать посты могут только пользователи прошедшие не сложную регистрацию
    Показать сообщения:    


    Под прицелом через торрент
    Скачать бесплатно Под прицелом
    Под прицелом скачать торрент
    Под прицелом смотреть онлайн
    Cкачать фильм Под прицелом бесплатно
    Под прицелом скачать торрент в хорошем качестве
    Под прицелом смотреть онлайн бесплатно в хорошем качестве
    Вы не можете начинать темы
    Вы не можете отвечать на сообщения
    Вы не можете редактировать свои сообщения
    Вы не можете удалять свои сообщения
    Вы не можете голосовать в опросах
    Вы не можете прикреплять файлы к сообщениям
    Вы можете скачивать файлы
    Под прицелом / Pressed [2011 г., Триллер, криминал, детектив, BDRip, MVO, лицензия] смотреть онлайн, скачать торрент picoco.icu