Доктор Стрэндж

Лицензия

Добыча

MVO

Дом дракона

1 сезон

Тор

Лицензия

Мэверик

Лицензия

Там, где раки поют

MVO

Властелин колец

1 сезон

Ultimate

pack

Рекомендуем

30

Repack

ВАЖНО

ВАЖНО

Ghostwire

RePack

jed

RePack

nioh2

RePack

RDR2

RePack

NEED FOR SPEED™ PAYBACK

RePack

скачать торрент

Кинопоиск HD

Острые козырьки 6 сезон

6 сезон

FAR CRY 6

RePack

скачать торрент

Лицензия

скачать торрент

MVO

1

1 сезон

скачать торрент

1 сезон

скачать торрент

Лицензия

  

Джекпот / Arme Riddere (Магнус Мартенс) [2011 г., боевик, комедия, криминал, BDRip-AVC, MVO+Оригинал, лицензия]

Джекпот через торрент pb.wtf

Размер: 1.84 GB | Добавлен: 9 лет 7 мес. назад | Торрент скачан:387 раз
Смотреть онлайн | Скачать   

11-02-2013 03:15 Джекпот Скачать торрент  

Джекпот / Arme Riddere

Год выпуска: 2011
Страна: Норвегия
Жанр: боевик, комедия, криминал
Продолжительность: 01:25:35
Перевод: Профессиональный многоголосый + Оригинал, Лицензия
Субтитры: Russian, Norwegian

Режиссер: Магнус Мартенс
Продюссер: Арье Хейденстром, Мартин Сандлэнд, Хьюго Хагеманн Фёскер
Сценарий: Магнус Мартенс, Ю Несбё

Мировой рейтинг IMDB 6.50 (713)


В ролях: Карре Хеллум, Мэдс Оусдаль, Хенрик Местад, Артур Бернинг, Андреас Каппелен, Лена Эллингсен, Фридтьов Сохейм, Петер Андерссон, Ян Гронли, Мари Блокхус

Описание: Испуганный и окровавленный, Оскар Свендсен просыпается с ружьём в руках в сомнительном заведении. Вокруг него 8 трупов и полиция, направляющаяся к нему. Оскар знает, что он невиновен. А всё началось с того, что четыре парня выиграли 1,7 миллиона в лотерею...

Качество: BDRip-AVC
Формат: MKV
Видео кодек: H.264
Аудио кодек: AC3
Видео: 1024 x 428 (2.393) at 24.000 fps AVC at 2000 Кбит/сек
Аудио#1: AC-3 at 448 Кбит/сек 6 каналов, 48,0 КГц RUS
Аудио#2: AC-3 at 640 Кбит/сек 6 каналов, 48,0 КГц NOR
Релиз от:




Общее
Уникальный идентификатор : 247181810237739271154681534740559532554 (0xB9F57C2940C36AE799C710D0B9AB920A)
Полное имя : D:ФильмыDzhekpot.2011.BDRip.AVC.mkv
Формат : Matroska
Версия формата : Version 4 / Version 2
Размер файла : 1,84 Гбайт
Продолжительность : 1 ч. 25 м.
Общий поток : 3076 Кбит/сек
Название фильма : KinoFan.TV
Дата кодирования : UTC 2013-02-11 02:51:13
Программа кодирования : mkvmerge v6.0.0 ('Coming Up For Air') built on Jan 20 2013 09:52:00
Библиотека кодирования : libebml v1.3.0 + libmatroska v1.4.0

Видео
Идентификатор : 1
Формат : AVC
Формат/Информация : Advanced Video Codec
Профиль формата : [email protected]
Параметр CABAC формата : Нет
Параметр ReFrames формата : 4 кадра
Идентификатор кодека : V_MPEG4/ISO/AVC
Продолжительность : 1 ч. 25 м.
Битрейт : 2000 Кбит/сек
Ширина : 1024 пикселя
Высота : 428 пикселей
Соотношение сторон : 2,40:1
Частота кадров : 24,000 кадра/сек
Цветовое пространство : YUV
Субдискретизация насыщенности : 4:2:0
Битовая глубина : 8 бит
Тип развёртки : Прогрессивная
Бит/(Пиксели*Кадры) : 0.190
Размер потока : 1,15 Гбайт (63%)
Библиотека кодирования : x264 core 115 r2008bm 4c552d8
Настройки программы : cabac=0 / ref=3 / deblock=0:0:0 / analyse=0x3:0x113 / me=hex / subme=7 / psy=1 / psy_rd=1.00:0.00 / mixed_ref=1 / me_range=16 / chroma_me=1 / trellis=1 / 8x8dct=1 / cqm=0 / deadzone=21,11 / fast_pskip=1 / chroma_qp_offset=-2 / threads=1 / sliced_threads=0 / nr=0 / decimate=1 / interlaced=0 / bluray_compat=0 / constrained_intra=0 / bframes=3 / b_pyramid=2 / b_adapt=1 / b_bias=0 / direct=1 / weightb=0 / open_gop=0 / weightp=0 / keyint=250 / keyint_min=24 / scenecut=40 / intra_refresh=0 / rc_lookahead=40 / rc=abr / mbtree=1 / bitrate=2000 / ratetol=1.0 / qcomp=0.60 / qpmin=0 / qpmax=69 / qpstep=4 / ip_ratio=1.40 / aq=1:1.00
Default : Да
Forced : Нет

Аудио #1
Идентификатор : 2
Формат : AC-3
Формат/Информация : Audio Coding 3
Расширение режима : CM (complete main)
Идентификатор кодека : A_AC3
Продолжительность : 1 ч. 25 м.
Вид битрейта : Постоянный
Битрейт : 448 Кбит/сек
Каналы : 6 каналов
Расположение каналов : Front: L C R, Side: L R, LFE
Частота : 48,0 КГц
Битовая глубина : 16 бит
Метод сжатия : С потерями
Размер потока : 274 Мбайт (15%)
Заголовок : AC3 448 kbps - MVO, R5
Язык : Russian
Default : Да
Forced : Да

Аудио #2
Идентификатор : 3
Формат : AC-3
Формат/Информация : Audio Coding 3
Расширение режима : CM (complete main)
Идентификатор кодека : A_AC3
Продолжительность : 1 ч. 25 м.
Вид битрейта : Постоянный
Битрейт : 640 Кбит/сек
Каналы : 6 каналов
Расположение каналов : Front: L C R, Side: L R, LFE
Частота : 48,0 КГц
Битовая глубина : 16 бит
Метод сжатия : С потерями
Размер потока : 392 Мбайт (21%)
Заголовок : AC3 640 kbps
Язык : Norwegian
Default : Нет
Forced : Нет

Текст #1
Идентификатор : 4
Формат : UTF-8
Идентификатор кодека : S_TEXT/UTF8
Идентификатор кодека/Информация : UTF-8 Plain Text
Язык : Russian
Default : Нет
Forced : Нет

Текст #2
Идентификатор : 5
Формат : UTF-8
Идентификатор кодека : S_TEXT/UTF8
Идентификатор кодека/Информация : UTF-8 Plain Text
Язык : Norwegian
Default : Нет
Forced : Нет


Джекпот скачать торрент





Скачать Джекпот через торрент https://pic1.kartinco.top/images/111/nk25pxfmcz.jpg Скачать, смотреть онлайн Джекпот бесплантно в хорошем качестве Описание: Испуганный и окровавленный, Оскар Свендсен просыпается с ружьём в руках в сомнительном заведении. Вокруг него 8 трупов и полиция, ... 10 10 1
Info! Золотая раздача, скачанное не засчитывается.
Торрент: Зарегистрирован [2013-02-11 03:15] · скачан: 387 раз
Статус: √ проверено
Размер: 1.84 GB
Как cкачать? Как скачать Джекпот через торрент | UTorrent

% Раздел Тема Автор DL S | L
Фильмы (Blu-ray, BD-Remux, HDDVD) [ 17.83 GB ] Джекпот / Arme Riddere | MVO | 1080p Вор в законе Скачать
1 | 0
Фильмы 2011 [ 1.37 GB ] Джекпот / Arme Riddere | MVO | HDRip, MVO, лицензия кэп Скачать
1 | 0

28-11-2019 20:33  


Отключить вcю реклaмy на сайте, в т.ч. и в плеере онлайн просмотра!

11-02-2013 10:50 Джекпот Скачать торрент  

как фильм?стоит качать???



11-02-2013 19:09 Джекпот Скачать торрент  

сейчас глянем! Автору-Спасибо!!!



    Дорогой пользователь! Огромная просьба, поблагодарите релизера, оцените раздачу и оставьте свои комментарий, если Вы скачали Джекпот через торрент бесплатно!!
    Комментировать посты могут только пользователи прошедшие не сложную регистрацию
    Показать сообщения:    


    Джекпот через торрент
    Скачать бесплатно Джекпот
    Джекпот скачать торрент
    Джекпот смотреть онлайн
    Cкачать фильм Джекпот бесплатно
    Джекпот скачать торрент в хорошем качестве
    Джекпот смотреть онлайн бесплатно в хорошем качестве
    Вы не можете начинать темы
    Вы не можете отвечать на сообщения
    Вы не можете редактировать свои сообщения
    Вы не можете удалять свои сообщения
    Вы не можете голосовать в опросах
    Вы не можете прикреплять файлы к сообщениям
    Вы можете скачивать файлы