Ссылка на приватное зеркало нашего сайта всего за 1$. Внимание количество ограничено!!!

2 сезон

iTunes

1 сезон

1

2 сезон

2 сезон

iTunes

1 сезон

RePack

30

Ultimate

ВАЖНО

ИГРА 18+

pack

RePack

MK11
pack

Забери бонус

RePack

jed

!!Акция!!

Alien_Rage

RePack

fifa19

RePack

Assassins Creed: Odyssey

RePack

NEED FOR SPEED™ PAYBACK

4 сезон

9 сезон

Бесстыжие 9 сезон

Все сериалы

все сериалы на PB.wtf

RePack

FAR CRY 5
  

Двойной удар / Double Impact (Шелдон Леттич) [1991 г., боевик, триллер, драма, криминал, BDRip 1080p, Профессиональный (многоголосый закадровый)] pb.wtf

Двойной удар через торрент pb.wtf

Размер: 7.67 GB | Добавлен: 7 лет 9 мес. назад | Торрент скачан:46 раз
Скачать  

12-02-2013 16:00 Двойной удар Скачать торрент  

Двойной удар / Double Impact

Год выпуска: 1991
Страна: США
Жанр: боевик, триллер, драма, криминал
Продолжительность: 01:49:40
Перевод: Профессиональный (многоголосый закадровый)

Режиссер: Шелдон Леттич
Продюссер: Ашок Амритрадж, Пол Майкл Глейзер, Жан-Клод Ван Дамм
Сценарий: Шелдон Леттич, Жан-Клод Ван Дамм, Стив Мирсон

Бюджет: $16 000 000
Премьера в мире: 31 июля 1991

Мировой рейтинг IMDB 5.00 (17 603)



В ролях: Жан-Клод Ван Дамм, Джеффри Льюис, Алонна Шоу, Коринна Эверсон, Филип Чань, Алан Скарф, Боло Йенг, Энди Армстронг, Ву Фонг Ланг, Питер Малота,
Роли дублировали: Владислав Пупков, Виталий Дорошенко, Валентина Гришокина

Описание: Когда-то мафия из Гонконга жестоко и безжалостно расправилась с родителями братьев-близнецов Чеда и Алекса, которых чудом удалось спасти в давней кровавой перестрелке. Судьба раскидала братьев по разные стороны океана: один рос в Калифорнии, другой остался в Гонконге. И вот спустя 25 лет стараниями верного друга их погибших родителей два брата встречаются, чтобы заставить виновников того преступления сильно раскаяться в некогда содеянном.


Качество: BDRip 1080p
Формат: MKV
Видео кодек: H.26x
Аудио кодек: AC3
Видео: 8861 Кбит/сек, 1920 x 1040 (1,85:1) 23,976 fps, (0.185 bit/pixel)
Аудио#1: 48.0 kHz, AC3 Dolby Digital, 3/2 (L,C,R,l,r) + LFE ch, 384 kbps (Rus) MVO
Аудио#2: 48.0 kHz, AC3 Dolby Digital, 3/2 (L,C,R,l,r) + LFE ch, 384 kbps (Rus) AVO (Гаврилов)
Аудио#3: 48.0 kHz, AC3 Dolby Digital, 3/2 (L,C,R,l,r) + LFE ch, 384 kbps (Eng)
Субтитры: Russian, English
CHAPTERS: YES


Общее
Уникальный идентификатор : 188274517879198547698132966385174295576 (0x8DA45A69AAF16A65B9F4634C7FE9B418)
Полное имя : D:DVDDouble.Impact.1991.1080p.BluRay.x264.mkv
Формат : Matroska
Версия формата : Version 2
Размер файла : 7,67 Гбайт
Продолжительность : 1 ч. 49 м.
Общий поток : 10,0 Мбит/сек
Название фильма : Double.Impact.1991.1080p.BluRay.x264
Дата кодирования : UTC 2013-02-12 11:31:31
Программа кодирования : mkvmerge v3.4.0 ('Rapunzel') сборка от May 15 2010 09:38:20
Библиотека кодирования : libebml v0.8.0 + libmatroska v0.9.0

Видео
Идентификатор : 1
Формат : AVC
Формат/Информация : Advanced Video Codec
Профиль формата : High@L4.1
Параметр CABAC формата : Да
Параметр ReFrames формата : 4 кадра
Идентификатор кодека : V_MPEG4/ISO/AVC
Продолжительность : 1 ч. 49 м.
Битрейт : 8861 Кбит/сек
Ширина : 1920 пикселей
Высота : 1040 пикселей
Соотношение сторон : 1,85:1
Режим частоты кадров : Постоянный
Частота кадров : 23,976 кадра/сек
Цветовое пространство : YUV
Субдискретизация насыщенности : 4:2:0
Битовая глубина : 8 бит
Тип развёртки : Прогрессивная
Бит/(Пиксели*Кадры) : 0.185
Размер потока : 6,63 Гбайт (86%)
Заголовок : Double.Impact.1991.1080p.BluRay.x264.mkv
Библиотека кодирования : x264 core 128 r2216 198a7ea
Настройки программы : cabac=1 / ref=4 / deblock=1:0:0 / analyse=0x3:0x113 / me=umh / subme=8 / psy=1 / psy_rd=1.00:0.00 / mixed_ref=1 / me_range=16 / chroma_me=1 / trellis=1 / 8x8dct=1 / cqm=0 / deadzone=21,11 / fast_pskip=1 / chroma_qp_offset=-2 / threads=12 / lookahead_threads=2 / sliced_threads=0 / nr=0 / decimate=1 / interlaced=0 / bluray_compat=0 / constrained_intra=0 / bframes=3 / b_pyramid=2 / b_adapt=2 / b_bias=0 / direct=3 / weightb=1 / open_gop=0 / weightp=2 / keyint=240 / keyint_min=24 / scenecut=40 / intra_refresh=0 / rc_lookahead=50 / rc=2pass / mbtree=1 / bitrate=8861 / ratetol=1.0 / qcomp=0.60 / qpmin=0 / qpmax=69 / qpstep=4 / cplxblur=20.0 / qblur=0.5 / ip_ratio=1.40 / aq=1:1.00
Язык : English
Default : Нет
Forced : Нет

Аудио #1
Идентификатор : 2
Формат : AC-3
Формат/Информация : Audio Coding 3
Расширение режима : CM (complete main)
Параметр Endianness формата : Big
Идентификатор кодека : A_AC3
Продолжительность : 1 ч. 49 м.
Вид битрейта : Постоянный
Битрейт : 384 Кбит/сек
Каналы : 6 каналов
Расположение каналов : Front: L C R, Side: L R, LFE
Частота : 48,0 КГц
Битовая глубина : 16 бит
Метод сжатия : С потерями
Задержка видео : 6 с. 0 мс.
Размер потока : 301 Мбайт (4%)
Заголовок : MVO
Язык : Russian
Default : Да
Forced : Да

Аудио #2
Идентификатор : 3
Формат : AC-3
Формат/Информация : Audio Coding 3
Расширение режима : CM (complete main)
Параметр Endianness формата : Big
Идентификатор кодека : A_AC3
Продолжительность : 1 ч. 49 м.
Вид битрейта : Постоянный
Битрейт : 384 Кбит/сек
Каналы : 6 каналов
Расположение каналов : Front: L C R, Side: L R, LFE
Частота : 48,0 КГц
Битовая глубина : 16 бит
Метод сжатия : С потерями
Задержка видео : 6 с. 0 мс.
Размер потока : 301 Мбайт (4%)
Заголовок : AVO (Гаврилов)
Язык : Russian
Default : Нет
Forced : Нет

Аудио #3
Идентификатор : 4
Формат : AC-3
Формат/Информация : Audio Coding 3
Расширение режима : CM (complete main)
Параметр Endianness формата : Big
Идентификатор кодека : A_AC3
Продолжительность : 1 ч. 49 м.
Вид битрейта : Постоянный
Битрейт : 384 Кбит/сек
Каналы : 6 каналов
Расположение каналов : Front: L C R, Side: L R, LFE
Частота : 48,0 КГц
Битовая глубина : 16 бит
Метод сжатия : С потерями
Задержка видео : 6 с. 0 мс.
Размер потока : 301 Мбайт (4%)
Язык : English
Default : Нет
Forced : Нет

Текст #1
Идентификатор : 5
Формат : UTF-8
Идентификатор кодека : S_TEXT/UTF8
Идентификатор кодека/Информация : UTF-8 Plain Text
Язык : Russian
Default : Нет
Forced : Нет

Текст #2
Идентификатор : 6
Формат : UTF-8
Идентификатор кодека : S_TEXT/UTF8
Идентификатор кодека/Информация : UTF-8 Plain Text
Язык : English
Default : Нет
Forced : Нет

Меню
00:00:00.000 : en:00:00:00.000
00:03:22.035 : en:00:03:22.035
00:09:45.335 : en:00:09:45.335
00:13:07.161 : en:00:13:07.161
00:21:00.050 : en:00:21:00.050
00:29:03.617 : en:00:29:03.617
00:37:33.251 : en:00:37:33.251
00:42:20.955 : en:00:42:20.955
00:50:04.376 : en:00:50:04.376
00:58:54.656 : en:00:58:54.656
01:07:32.131 : en:01:07:32.131
01:17:58.549 : en:01:17:58.549
01:23:50.067 : en:01:23:50.067
01:28:48.073 : en:01:28:48.073
01:34:14.399 : en:01:34:14.399
01:44:12.621 : en:01:44:12.621


Двойной удар скачать торрент


pb.wtf



Скачать Двойной удар через торрент http://i51.fastpic.ru/big/2013/0212/f2/15f7a1efe6197d4b73bdda7af6b0caf2.png Скачать фильм Двойной удар через торрент бесплантно в хорошем качестве Описание: Когда-то мафия из а жестоко и безжалостно расправилась с родителями братьев-близнецов Чеда и Алекса, которых чудом удалось ... 9 10 1
Info! Золотая раздача, скачанное не засчитывается.
Торрент: Зарегистрирован [2013-02-12 16:00] · скачан: 46 раз
Статус: √ проверено
Размер: 7.67 GB
Как cкачать? Как скачать Двойной удар через торрент | qTorrent

% Раздел Тема Автор DL S | L
Фильмы [HD 720p, 1080p] (Хороший звук DUB, MVO) [ 5.85 GB ] Двойной удар / Double Impact [1991 BDRip 1080p HEVC ] Мичман37 Скачать
1 | 0
Фильмы [HD 720p, 1080p] (Хороший звук DUB, MVO) [ 17.51 GB ] Двойной удар / Double Impact [1991 BDRip 1080p] DUB MVO AVO VO msltel Скачать
1 | 0
Фильмы [HD 720p, 1080p] (Хороший звук DUB, MVO) [ 9.23 GB ] Двойной удар / Double Impact [1991 BDRip 720p] DUB MVO AVO VO msltel Скачать
1 | 0
Фильмы до 2000 г. [ 1.88 GB ] Двойной удар / Double Impact [1991 BDRip] [AVO] + killermax2013 Скачать
1 | 0
Фильмы [HD 720p, 1080p] (Хороший звук DUB, MVO) [ 7.75 GB ] Двойной удар / Double Impact [1991 BDRip 1080p MVO закадровый] Бумер Скачать
1 | 0
Гонзо [ 2 GB ] Двойной удар / Double Impact [2013 Gonzo DP Anal DVDRip-AVC Оригинал] sheker187 Скачать
1 | 0
Фильмы до 2000 г. [ 1.46 GB ] Двойной удар / Double Impact [1991 DVDRip] yrgent9032 Скачать
1 | 0

28-11-2019 20:33  

Отключить всю рекламу на сайте

14-02-2013 12:53 Двойной удар Скачать торрент  

    Дорогой пользователь! Огромная просьба, поблагодарите релизера, оцените раздачу и оставьте свои комментарий, если Вы скачали Двойной удар через торрент бесплатно! Внесите свою лепту в развитие PiratBit!
    Комментировать посты могут только пользователи прошедшие не сложную регистрацию
    Показать сообщения:    

    Двойной удар через торрент
    Скачать бесплатно Двойной удар
    Двойной удар скачать торрент
    Двойной удар смотреть онлайн
    Cкачать фильм Двойной удар бесплатно
    Двойной удар скачать торрент в хорошем качестве
    Двойной удар смотреть онлайн бесплатно в хорошем качестве


    Вы не можете начинать темы
    Вы не можете отвечать на сообщения
    Вы не можете редактировать свои сообщения
    Вы не можете удалять свои сообщения
    Вы не можете голосовать в опросах
    Вы не можете прикреплять файлы к сообщениям
    Вы можете скачивать файлы