Ссылка на приватное зеркало нашего сайта всего за 1$. Внимание количество ограничено!!!

2 сезон

iTunes

1 сезон

1

2 сезон

2 сезон

iTunes

1 сезон

RePack

30

Ultimate

ВАЖНО

ИГРА 18+

pack

RePack

MK11
pack

Забери бонус

RePack

jed

!!Акция!!

Alien_Rage

RePack

fifa19

RePack

Assassins Creed: Odyssey

RePack

NEED FOR SPEED™ PAYBACK

4 сезон

9 сезон

Бесстыжие 9 сезон

Все сериалы

все сериалы на PB.wtf

RePack

FAR CRY 5
  

Экипаж / Flight (Роберт Земекис) [2012 г., драма, BDRip 720p, DUB, лицензия] pb.wtf

Экипаж через торрент pb.wtf

Размер: 9.32 GB | Добавлен: 7 лет 9 мес. назад | Торрент скачан:379 раз
Скачать  

21-02-2013 05:42 Экипаж Скачать торрент  



Экипаж / Flight
Год выпуска: 2012
Страна: США
Жанр: драма
Продолжительность: 02:18:35
Перевод: Дубляж, Лицензия

Режиссер: Роберт Земекис
Продюссер: Лори МакДональд, Уолтер Ф. Паркс, Джек Рэпк
Сценарий: Джон Гэйтинс

Бюджет: $31 000 000

Мировой рейтинг IMDB 7.30 (70 915)


В ролях: Дензел Вашингтон, Келли Райлли, Брюс Гринвуд, Дон Чидл, Джон Гудмен, Тамара Тюни, Брайан Джерати, Мелисса Лео, Надин Веласкес, Майкл Бисли, Гарсель Бове, Рави Капур

Описание: Опытный пилот Уип Вайтекер чудом избегает крушения самолета, и, совершив аварийную посадку, сохраняет жизни практически всех пассажиров. Уипа чествуют, как героя, но чем больше появляется подробностей о катастрофе, тем больше вопросов возникает: что же на самом деле произошло на борту самолёта…

Качество: BDRip 720p
Формат: MKV
Видео кодек: H.26x
Аудио кодек: AC3/DTS
Видео: 1280x534 (2.35:1), 23.976 fps, 4 011 Kbps (0.245 bit/pixel)
Аудио #1: AC-3, 48.0 KHz, 6 ch, 448 Kbps, CBR (Russian) [Дубляж]
Аудио #2: AC-3, 48.0 KHz, 6 ch, 448 Kbps, CBR (Ukrainian) [Дубляж]
Аудио #3: DTS, 48.0 KHz, 6 ch, 1 510 Kbps, CBR (Russian) [MVO, Omikron]
Аудио #4: DTS, 48.0 KHz, 6 ch, 1 510 Kbps, CBR (Russian) [AVO, Дасевич]
Аудио #5: DTS, 48.0 KHz, 6 ch, 1 510 Kbps, CBR (English)
Субтитры: Russian [R5, Forced, Janetta-SDH, Groby, Voronine], Ukrainian [Full, Forced], English [Full, SDH]



Общее
Уникальный идентификатор : 248842869035758047496372848571410042920 (0xBB3564AECE332F54808CF5B2BD085028)
Полное имя : E:Экипаж.2012.BDRip.720p..mkv
Формат : Matroska
Версия формата : Version 2
Размер файла : 9,32 Гбайт
Продолжительность : 2 ч. 18 м.
Общий поток : 9628 Кбит/сек
Название фильма : IRONCLUB
Дата кодирования : UTC 2013-02-20 19:33:03
Программа кодирования : mkvmerge v5.2.0 ('I can't explain') built on Dec 18 2011 18:12:03
Библиотека кодирования : libebml v1.2.3 + libmatroska v1.3.0

Видео
Идентификатор : 1
Формат : AVC
Формат/Информация : Advanced Video Codec
Профиль формата : High@L4.1
Параметр CABAC формата : Да
Параметр ReFrames формата : 12 кадров
Идентификатор кодека : V_MPEG4/ISO/AVC
Продолжительность : 2 ч. 18 м.
Битрейт : 4013 Кбит/сек
Ширина : 1280 пикселей
Высота : 534 пикселя
Соотношение сторон : 2,40:1
Режим частоты кадров : Постоянный
Частота кадров : 23,976 кадра/сек
Цветовое пространство : YUV
Субдискретизация насыщенности : 4:2:0
Битовая глубина : 8 бит
Тип развёртки : Прогрессивная
Бит/(Пиксели*Кадры) : 0.245
Размер потока : 3,89 Гбайт (42%)
Заголовок : Flight.2012.720p.BluRay.DTS.x264-EbP
Язык : English
Default : Да
Forced : Да

Аудио #1
Идентификатор : 2
Формат : AC-3
Формат/Информация : Audio Coding 3
Расширение режима : CM (complete main)
Параметр Endianness формата : Big
Идентификатор кодека : A_AC3
Продолжительность : 2 ч. 18 м.
Вид битрейта : Постоянный
Битрейт : 448 Кбит/сек
Каналы : 6 каналов
Расположение каналов : Front: L C R, Side: L R, LFE
Частота : 48,0 КГц
Битовая глубина : 16 бит
Метод сжатия : С потерями
Размер потока : 444 Мбайт (5%)
Заголовок : DD 5.1 @ 448 kbps - Dub, R5
Язык : Russian
Default : Да
Forced : Да

Аудио #2
Идентификатор : 3
Формат : AC-3
Формат/Информация : Audio Coding 3
Расширение режима : CM (complete main)
Параметр Endianness формата : Big
Идентификатор кодека : A_AC3
Продолжительность : 2 ч. 18 м.
Вид битрейта : Постоянный
Битрейт : 448 Кбит/сек
Каналы : 6 каналов
Расположение каналов : Front: L C R, Side: L R, LFE
Частота : 48,0 КГц
Битовая глубина : 16 бит
Метод сжатия : С потерями
Размер потока : 444 Мбайт (5%)
Заголовок : DD 5.1 @ 448 kbps - Dub, R5
Язык : Ukrainian
Default : Нет
Forced : Нет

Аудио #3
Идентификатор : 4
Формат : DTS
Формат/Информация : Digital Theater Systems
Режим : 16
Параметр Endianness формата : Big
Идентификатор кодека : A_DTS
Продолжительность : 2 ч. 18 м.
Вид битрейта : Постоянный
Битрейт : 1509 Кбит/сек
Каналы : 6 каналов
Расположение каналов : Front: L C R, Side: L R, LFE
Частота : 48,0 КГц
Битовая глубина : 24 бит
Метод сжатия : С потерями
Размер потока : 1,46 Гбайт (16%)
Заголовок : DTS 5.1 @ 1536 kbps - MVO, Omikron
Язык : Russian
Default : Нет
Forced : Нет

Аудио #4
Идентификатор : 5
Формат : DTS
Формат/Информация : Digital Theater Systems
Режим : 16
Параметр Endianness формата : Big
Идентификатор кодека : A_DTS
Продолжительность : 2 ч. 18 м.
Вид битрейта : Постоянный
Битрейт : 1509 Кбит/сек
Каналы : 6 каналов
Расположение каналов : Front: L C R, Side: L R, LFE
Частота : 48,0 КГц
Битовая глубина : 24 бит
Метод сжатия : С потерями
Размер потока : 1,46 Гбайт (16%)
Заголовок : DTS 5.1 @ 1536 kbps - AVO, Dasevich
Язык : Russian
Default : Нет
Forced : Нет

Аудио #5
Идентификатор : 6
Формат : DTS
Формат/Информация : Digital Theater Systems
Режим : 16
Параметр Endianness формата : Big
Идентификатор кодека : A_DTS
Продолжительность : 2 ч. 18 м.
Вид битрейта : Постоянный
Битрейт : 1509 Кбит/сек
Каналы : 6 каналов
Расположение каналов : Front: L C R, Side: L R, LFE
Частота : 48,0 КГц
Битовая глубина : 24 бит
Метод сжатия : С потерями
Размер потока : 1,46 Гбайт (16%)
Заголовок : DTS 5.1 @ 1536 kbps
Язык : English
Default : Нет
Forced : Нет

Текст #1
Идентификатор : 7
Формат : UTF-8
Идентификатор кодека : S_TEXT/UTF8
Идентификатор кодека/Информация : UTF-8 Plain Text
Заголовок : Forced
Язык : Russian
Default : Нет
Forced : Нет

Текст #2
Идентификатор : 8
Формат : UTF-8
Идентификатор кодека : S_TEXT/UTF8
Идентификатор кодека/Информация : UTF-8 Plain Text
Заголовок : Full - R5
Язык : Russian
Default : Нет
Forced : Нет

Текст #3
Идентификатор : 9
Формат : UTF-8
Идентификатор кодека : S_TEXT/UTF8
Идентификатор кодека/Информация : UTF-8 Plain Text
Заголовок : Forced
Язык : Ukrainian
Default : Нет
Forced : Нет

Текст #4
Идентификатор : 10
Формат : UTF-8
Идентификатор кодека : S_TEXT/UTF8
Идентификатор кодека/Информация : UTF-8 Plain Text
Заголовок : Full - R5
Язык : Ukrainian
Default : Нет
Forced : Нет

Текст #5
Идентификатор : 11
Формат : UTF-8
Идентификатор кодека : S_TEXT/UTF8
Идентификатор кодека/Информация : UTF-8 Plain Text
Заголовок : Voronine
Язык : Russian
Default : Нет
Forced : Нет

Текст #6
Идентификатор : 12
Формат : UTF-8
Идентификатор кодека : S_TEXT/UTF8
Идентификатор кодека/Информация : UTF-8 Plain Text
Заголовок : SDH - Janetta
Язык : Russian
Default : Нет
Forced : Нет

Текст #7
Идентификатор : 13
Формат : UTF-8
Идентификатор кодека : S_TEXT/UTF8
Идентификатор кодека/Информация : UTF-8 Plain Text
Заголовок : Groby
Язык : Russian
Default : Нет
Forced : Нет

Текст #8
Идентификатор : 14
Формат : UTF-8
Идентификатор кодека : S_TEXT/UTF8
Идентификатор кодека/Информация : UTF-8 Plain Text
Язык : English
Default : Нет
Forced : Нет

Текст #9
Идентификатор : 15
Формат : UTF-8
Идентификатор кодека : S_TEXT/UTF8
Идентификатор кодека/Информация : UTF-8 Plain Text
Заголовок : SDH
Язык : English
Default : Нет
Forced : Нет

Меню
00:00:00.000 : en:00:00:00.000
00:09:32.572 : en:00:09:32.572
00:17:06.984 : en:00:17:06.984
00:26:16.784 : en:00:26:16.784
00:34:40.203 : en:00:34:40.203
00:45:42.615 : en:00:45:42.615
00:52:01.493 : en:00:52:01.493
01:00:46.768 : en:01:00:46.768
01:10:10.081 : en:01:10:10.081
01:19:30.808 : en:01:19:30.808
01:26:54.543 : en:01:26:54.543
01:37:05.236 : en:01:37:05.236
01:48:54.153 : en:01:48:54.153
01:55:20.122 : en:01:55:20.122
02:11:54.740 : en:02:11:54.740


Экипаж скачать торрент


pb.wtf



Скачать Экипаж через торрент http://pic.kartinco.top/images/1/srdd6ohzuj.jpg Скачать фильм Экипаж через торрент бесплантно в хорошем качестве Описание: Опытный пилот Уип Вайтекер чудом избегает крушения самолета, и, совершив аварийную посадку, сохраняет жизни практически всех ... 9.7 10 3
Info! Золотая раздача, скачанное не засчитывается.
Торрент: Зарегистрирован [2013-02-21 05:42] · скачан: 379 раз
Статус: √ проверено
Размер: 9.32 GB
Как cкачать? Как скачать Экипаж через торрент | qTorrent

% Раздел Тема Автор DL S | L
Фильмы [HD 720p, 1080p] (Хороший звук DUB, MVO) [ 14.6 GB ] Экипаж / Flight [2012 BDRip 1080p DUB русский украинский + оригинал + профессиональный + профессиональный ] Sудья Скачать
1 | 0
Фильмы 2012 [ 1.46 GB ] Экипаж / Flight [2012 BDRip / лицензия] Mr. Freeman Скачать
2 | 0
Фильмы 2012 [ 935 MB ] Экипаж / Flight [2012 HDRip] DUB dexter lex Скачать
2 | 0
Фильмы 2012 [ 1.46 GB ] Экипаж / Flight [2012 BDRip-AVC] DUB Rzhavec Скачать
1 | 0
Фильмы (Blu-ray, BD-Remux, HDDVD) [ 41.79 GB ] Экипаж / Flight [2012 Blu-Ray CEE DUB лицензия] Pavlin Скачать
1 | 0
Фильмы 2012 [ 754 MB ] Экипаж / Flight [2012 BDRip] DUB Oдин 777 Скачать
1 | 0
Фильмы (DVD фильмы) [ 6.82 GB ] Экипаж / Flight [2012 DVD9] R5 voovaz Скачать
1 | 0

28-11-2019 20:33  

Отключить всю рекламу на сайте

21-02-2013 13:00 Экипаж Скачать торрент  

банановый пароходик блин pb.wtf



25-02-2013 08:27 Экипаж Скачать торрент  

Junglist писал(а):

банановый пароходик блин

А ты кто такой, чтоб давать характеристики, жалкий задрот?
Дензел -хороший актер, первый черный оскароносец.pb.wtf



    Дорогой пользователь! Огромная просьба, поблагодарите релизера, оцените раздачу и оставьте свои комментарий, если Вы скачали Экипаж через торрент бесплатно! Внесите свою лепту в развитие PiratBit!
    Комментировать посты могут только пользователи прошедшие не сложную регистрацию
    Показать сообщения:    

    Экипаж через торрент
    Скачать бесплатно Экипаж
    Экипаж скачать торрент
    Экипаж смотреть онлайн
    Cкачать фильм Экипаж бесплатно
    Экипаж скачать торрент в хорошем качестве
    Экипаж смотреть онлайн бесплатно в хорошем качестве


    Вы не можете начинать темы
    Вы не можете отвечать на сообщения
    Вы не можете редактировать свои сообщения
    Вы не можете удалять свои сообщения
    Вы не можете голосовать в опросах
    Вы не можете прикреплять файлы к сообщениям
    Вы можете скачивать файлы