новый адрес
Ссылка на приватное зеркало всего за 1$. Внимание количество ограничено!!!

iTunes

1+1

iTunes

мы

WEB-DL

1

iTunes

Чернобыль

iTunes

Ральф против интернета

Лицензия

ПШазам

Лицензия

Оно 2

Лицензия

30
pack

Вам бонус

ВАЖНО

!!Акция!!

Alien_RageХит недели

RePack

Resident Evil 21

ИГРА 18+

pack

RePack

jed

!!Акция!!

Alien_Rage

RePack

fifa19

RePack

Assassins Creed: Odyssey

RePack

NEED FOR SPEED™ PAYBACK

3 сезон

9 сезон

Бесстыжие 9 сезон

Все сериалы

все сериалы на PB.wtf

RePack

FAR CRY 5
Ребята, катастрофически не хватает 1900р. для оплаты серверов за Октябрь (всвязи с блокировками трафик упал в 3 раза), 1-2р., выручайте.
  

Раз на раз не приходится (Ара Габриелян) [1987 г., комедия, криминал, SATRip] pb.wtf

Раз на раз не приходится через торрент pb.wtf

Качают: 1 [ 0 KB/s ]
Размер: 1.45 GB | Добавлен: 6 лет 9 мес. назад | Торрент скачан:137 раз
Скачать  

26-02-2013 14:43 Раз на раз не приходится Скачать торрент  

Раз на раз не приходится

Год выпуска: 1987
Страна: СССР
Жанр: комедия, криминал
Продолжительность: 01:10:48
Перевод: Не требуется

Режиссер: Ара Габриелян
Сценарий: Валентин Ежов, Альберт Иванов



В ролях: Армен Джигарханян,Леонид Куравлёв, Борислав Брондуков, Любовь Полищук, Виктор Кремлев, Г. Барков, Владимир Бурлаков, Виталий Варганов, Анатолий Веденкин, Мария Виноградова

Описание: Бригада горе-строителей отправлена на штрафные работы: рушить старые постройки. В одной из развалин герои фильма обнаруживают припрятанные кем-то золотые слитки. Перед ними дилемма: получить за находку четверть стоимости клада — или сбыть золото «налево»?

Качество: SATRip
Формат: AVI
Видео кодек: XviD
Аудио кодек: PCM
Видео: 672x368, (1,85:1), 25,000 кадров/сек, 1377 Кбит/сек, 0.223 бит/пикс
Аудио#1: 48,0 КГц, PCM(Little/Signed), 2 канала, 1536 Кбит/сек
скриншот  скриншот  скриншот  скриншот  скриншот  

Общее
Полное имя : D:загрузкиРаз на раз не приходится.avi
Формат : AVI
Формат/Информация : Audio Video Interleave
Размер файла : 1,45 Гбайт
Продолжительность : 1 ч. 10 м.
Общий поток : 2923 Кбит/сек
Программа кодирования : VirtualDubMod 1.5.10.2 (build 2540/release)

Видео
Идентификатор : 0
Формат : MPEG-4 Visual
Профиль формата : Advanced Simple@L5
Параметр BVOP формата : 1
Параметр QPel формата : Нет
Параметр GMC формата : Без точки перехода
Параметр матрицы формата : Выборочная
Идентификатор кодека : XVID
Идентификатор кодека/Подсказка : XviD
Продолжительность : 1 ч. 10 м.
Битрейт : 1377 Кбит/сек
Ширина : 672 пикселя
Высота : 368 пикселей
Соотношение сторон : 1,85:1
Частота кадров : 25,000 кадров/сек
Цветовое пространство : YUV
Субдискретизация насыщенности : 4:2:0
Битовая глубина : 8 бит
Тип развёртки : Прогрессивная
Метод сжатия : С потерями
Бит/(Пиксели*Кадры) : 0.223
Размер потока : 698 Мбайт (47%)
Библиотека кодирования : XviD 1.2.1 (UTC 2008-12-04)

Аудио
Идентификатор : 1
Формат : PCM
Параметр Endianness формата : Little
Параметр Sign формата : Signed
Идентификатор кодека : 1
Продолжительность : 1 ч. 10 м.
Вид битрейта : Постоянный
Битрейт : 1536 Кбит/сек
Каналы : 2 канала
Частота : 48,0 КГц
Битовая глубина : 16 бит
Размер потока : 778 Мбайт (53%)
Продолжительность промежутка : 40 мс. (1,00 видеокадр)
Время предзагрузки промежутка : 500 мс.

pb.wtf



Скачать Раз на раз не приходится через торрент http://pic.kartinco.top/images/2/1nijhugnhq.jpg Скачать фильм Раз на раз не приходится через торрент бесплантно в хорошем качестве Описание: Бригада горе-строителей отправлена на штрафные работы: рушить старые постройки. В одной из развалин герои фильма обнаруживают ... 10 10 7
Info! Золотая раздача, скачанное не засчитывается.
Торрент: Зарегистрирован [2013-02-26 15:20] · скачан: 137 раз
Статус: √ проверено
Размер: 1.45 GB
Как cкачать? Как скачать Раз на раз не приходится через торрент | qTorrent

28-11-2019 20:33  

Отключить всю рекламу на сайте


    Дорогой пользователь! Огромная просьба, поблагодарите релизера, оцените раздачу и оставьте свои комментарий, если Вы скачали Раз на раз не приходится через торрент бесплатно! Внесите свою лепту в развитие PiratBit!
    Комментировать посты могут только пользователи прошедшие не сложную регистрацию
    Показать сообщения:    

    Раз на раз не приходится через торрент
    Скачать бесплатно Раз на раз не приходится
    Раз на раз не приходится скачать торрент
    Раз на раз не приходится смотреть онлайн
    Cкачать фильм Раз на раз не приходится бесплатно
    Раз на раз не приходится скачать торрент в хорошем качестве
    Раз на раз не приходится смотреть онлайн бесплатно в хорошем качестве


    Вы не можете начинать темы
    Вы не можете отвечать на сообщения
    Вы не можете редактировать свои сообщения
    Вы не можете удалять свои сообщения
    Вы не можете голосовать в опросах
    Вы не можете прикреплять файлы к сообщениям
    Вы можете скачивать файлы