Ссылка на приватное зеркало нашего сайта всего за 1$. Внимание количество ограничено!!!

2 сезон

iTunes

1 сезон

1

2 сезон

2 сезон

iTunes

1 сезон

RePack

30

Ultimate

ВАЖНО

ИГРА 18+

pack

RePack

MK11
pack

Забери бонус

RePack

jed

!!Акция!!

Alien_Rage

RePack

fifa19

RePack

Assassins Creed: Odyssey

RePack

NEED FOR SPEED™ PAYBACK

4 сезон

9 сезон

Бесстыжие 9 сезон

Все сериалы

все сериалы на PB.wtf

RePack

FAR CRY 5
  

Букет (Андрей Канивченко) [2013, Мелодрама, HDTV 1080i] pb.wtf

Букет через торрент pb.wtf

Размер: 4.63 GB | Добавлен: 7 лет 7 мес. назад | Торрент скачан:1 раз
Скачать  

11-04-2013 12:22 Букет Скачать торрент  

Букет Жанр: Мелодрама
Производство: Россия
Год выпуска: 2013
Продолжительность: 01:31:40
Режиссёр: Андрей Канивченко
В ролях: Ольга Котельникова, Елена Дубровская, Анатолий Котенёв, Инна Коляда, Анатолий Руденко
Субтитры: Отсутствуют Описание: Каждая девушка хочет услышать предложение руки и сердца от своего любимого, но только не Таня. Ведь только что закончилась школа, зачем так рано становиться взрослыми! А вдруг за поворотом ее ждет огромное счастье? Во всяком случае, мама считает именно так. И когда на горизонте появляется перспективный жених с дипломатическим будущим, Таня делает выбор в его пользу. Проходят восемнадцать лет Таниной жизни. Дочь Таня воспитывает одна, с работы приходится уйти, и будущее зыбко и туманно. Неизменным в ее жизни остается лишь одно: от Сергея, ее первой любви, на день рождения приходит букет ромашек. Семнадцать лет. Семнадцать букетов. Как важно знать, что кто-то в этом мире так преданно любит тебя! Новый день рождения не приносит с собой очередного букета. И только теперь Таня понимает, как много значил для нее этот букет на день рожденья. Сможет ли Таня вернуть любовь в свою жизнь?... Семпл
Кинопоиск
Качество: HDTV 1080i
Формат: ts
Видео кодек: AVC
Аудио кодек: MP2
Видео: AVC, 6 649 Kbps, 1920x1080 (16:9), 25.000 fps, 8 bits
Аудио: MPEG Audio Layer 2, MP2, 2 ch, 224 Kbps, 48.0 KHz
E:ФильмыByket.(2013).HDTV.Shuriman.ts
General #1
ID : 1 (0x1)
Complete name : E:ФильмыByket.(2013).HDTV.Shuriman.ts
Format : MPEG-TS
File size : 4.63 GiB
Duration : 1h 31mn
Overall bit rate mode : Variable
Overall bit rate : 7 233 Kbps
Video #1901
ID : 1901 (0x76D)
Menu ID : 1 (0x1)
Format : AVC
Format/Info : Advanced Video Codec
Format profile : High@L4.0
Format settings, CABAC : Yes
Format settings, ReFrames : 3 frames
Codec ID : 27
Duration : 1h 31mn
Bit rate : 6 649 Kbps
Width : 1 920 pixels
Height : 1 080 pixels
Display aspect ratio : 16:9
Frame rate : 25.000 fps
Standard : Component
Color space : YUV
Chroma subsampling : 4:2:0
Bit depth : 8 bits
Scan type : Interlaced
Scan order : Top Field First
Bits/(Pixel*Frame) : 0.128
Stream size : 4.26 GiB (92%)
Color primaries : BT.709
Transfer characteristics : BT.709
Matrix coefficients : BT.709
Audio #2901
ID : 2901 (0xB55)
Menu ID : 1 (0x1)
Format : MPEG Audio
Format version : Version 1
Format profile : Layer 2
Codec ID : 3
Duration : 1h 31mn
Bit rate mode : Constant
Bit rate : 224 Kbps
Channel(s) : 2 channels
Sampling rate : 48.0 KHz
Compression mode : Lossy
Stream size : 147 MiB (3%)
Language : Russian
Релиз от: Shurimanpb.wtf



Скачать Букет через торрент http://i54.fastpic.ru/big/2013/0328/1c/8f8f00c03546596a5434d04e4c94201c.jpg Скачать фильм Букет через торрент бесплантно в хорошем качестве Описание: Каждая девушка хочет услышать предложение руки и сердца от своего любимого, но только не Таня. Ведь только что закончилась ... 9 10 11
Info! Золотая раздача, скачанное не засчитывается.
Торрент: Зарегистрирован [2013-04-11 12:22] · скачан: 1 раз
Статус: √ проверено
Размер: 4.63 GB
Как cкачать? Как скачать Букет через торрент | qTorrent

% Раздел Тема Автор DL S | L
Фантастика [ 251 MB ] Евгений Гаглоев - Пандемониум 4. Букет увядших орхидей [Литвинов Иван 2018 64 kbps MP3] oleg8 Скачать
1 | 0
Кино СССР [ 1.09 GB ] Букет фиалок [1983 СССР военный SATRip-AVC от AVP Studio] AVP Studio Скачать
1 | 0
Кино СССР [ 745 MB ] Букет фиалок [1983 СССР военный SATRip от AVP Studio] AVP Studio Скачать
1 | 0
Наши новые фильмы 2013 [ 1.37 GB ] Букет [2013 Мело HDTVRip] dmitriy5632 Скачать
1 | 0

28-11-2019 20:33  

Отключить всю рекламу на сайте

    Дорогой пользователь! Огромная просьба, поблагодарите релизера, оцените раздачу и оставьте свои комментарий, если Вы скачали Букет через торрент бесплатно! Внесите свою лепту в развитие PiratBit!
    Комментировать посты могут только пользователи прошедшие не сложную регистрацию
    Показать сообщения:    

    Букет через торрент
    Скачать бесплатно Букет
    Букет скачать торрент
    Букет смотреть онлайн
    Cкачать фильм Букет бесплатно
    Букет скачать торрент в хорошем качестве
    Букет смотреть онлайн бесплатно в хорошем качестве


    Вы не можете начинать темы
    Вы не можете отвечать на сообщения
    Вы не можете редактировать свои сообщения
    Вы не можете удалять свои сообщения
    Вы не можете голосовать в опросах
    Вы не можете прикреплять файлы к сообщениям
    Вы можете скачивать файлы