Всегда рабочее зеркало без VPN и Proxy просто перед .vidak.icu напиши любое слово или цифру, Пример http://eesg.vidak.icu

MVO

Лицензия

1 сезон

1

1 сезон

iTunes

1 сезон

13

1 сезон

Deluxe

pack

Рекомендуем

Пиратка

30

ВАЖНО

RePack

MK11

RePack

jed

RePack

fifa19

RePack

RDR2

RePack

NEED FOR SPEED™ PAYBACK

Кинопоиск HD

6 сезон

 Острые козырьки 6 сезон

Все сериалы

все сериалы на PB.wtf

RePack

FAR CRY 5
  
Magnet ссылка

Хоббит: Нежданное путешествие в 3Д / The Hobbit: An Unexpected Journey 3D (Питер Джексон) [2012 г., фэнтези, приключения, BDRip 720p, Дубляж, лицензия] Анаглиф (Дюбуа) pb.wtf

Хоббит: Нежданное путешествие в 3Д через торрент pb.wtf

Размер: 6.57 GB | Добавлен: 9 лет 2 мес. назад | Торрент скачан:345 раз
Смотреть онлайн Хоббит: Нежданное путешествие в 3Д | Скачать    Ребята, помогите собрать деньги на оплату серверов!!!

16-04-2013 10:00 Хоббит: Нежданное путешествие в 3Д Скачать торрент  

Хоббит: Нежданное путешествие в 3Д / The Hobbit: An Unexpected Journey 3D
Год выпуска: 2012
Страна: США, Новая Зеландия
Жанр: фэнтези, приключения,
Продолжительность: 02:49:42
Перевод: Дубляж, Лицензия
Субтитры: [softsub SRT]
Русские Forced
Русские Full, BD3D CEE
Русские Full, Voronine
Украинские Forced
Английские SDH
Английские SDH Color

Режиссер: Питер Джексон
Продюссер: Кэролинн Каннингэм, Питер Джексон, Фрэнсис Уолш
Сценарий: Фрэнсис Уолш, Филиппа Бойенс, Питер Джексон

Бюджет: $180 000 000
Премьера в мире: 28 ноября 2012

Мировой рейтинг IMDB 8.20 (273 812)



В ролях: Мартин Фриман, Иэн МакКеллен, Ричард Армитидж, Джеймс Несбитт, Кен Стотт, Грэм МакТавиш, Дин О’Горман, Эйдан Тернер, Джед Брофи, Марк Хэдлоу,
Роли дублировали: Илья Хвостиков, Василий Бочкарев, Игорь Балалаев, Владислав Копп, Алексей Борзунов,

Описание: Фильм повествует о путешествии Бильбо Бэггинса, который пускается в грандиозный поход, целью которого является отвоевание утраченного королевства гномов Эребор у зловещего дракона Смауга. Совершенно неожиданно с хоббитом налаживает контакт волшебник Гэндальф Серый. Так Бильбо находит себя, присоединяясь к компании тринадцати гномов, возглавляемых легендарным воином, Торином Дубощитом. Их путешествие проляжет через Дикий Край, через предательские земли, населенные гоблинами и орками, смертоносными варгами и гигантскими пауками, народом, меняющим шкуры, и волшебниками.И хотя их цель находится на Востоке среди пустошей Одинокой Горы, сначала им придется выбраться из туннелей гоблинов, где Бильбо встретит существо, которое изменит его жизнь навсегда... Голлума.Здесь, один на один с Голлумом, на берегу подземного озера, непритязательный Бильбо Бэггинс обнаружит не только скрытые в глубине души хитрость и отвагу, которые удивят даже его, но и завладеет «прелестным» колечком Голлума, которое обладает нежданными и полезными свойствами... Простое золотое кольцо, c которым связана судьба всего Средиземья, нитями, о которых Бильбо не мог даже вообразить.


Доп. информация: Формат 3D: Анаглиф (Дюбуа)



Качество: BDRip 720p
Формат: MKV
Видео кодек: H.264
Аудио кодек: AC3
Видео: 1280 x 528, 4011 Кбит/с, 23.976 кадр/с (2,40:1) / 0.248 bit/pixel
Аудио#1: AC3 / 48 KHz / 5.1 ch / 448 kbps / Русский дубляж, [Лицензия, BD3D CEE]
Аудио#2: AC3 / 48 KHz / 5.1 ch / 448 kbps / Украинский дубляж, [Лицензия, BD3D CEE]
Аудио#3: AC3 / 48 KHz / 5.1 ch / 640 kbps / Английский original, [Лицензия, BD3D CEE]



скриншот   скриншот   скриншот   скриншот   скриншот   скриншот  
Общее
Уникальный идентификатор : 242087806956584960647375321880051472408 (0xB6206A689EAF0FEAA6288DE6F6A25818)
Полное имя : D:DVDThe.Hobbit.An.Unexpected.Journey.3D(Anaglyph_Dubois).mkv
Формат : Matroska
Версия формата : Version 2
Размер файла : 6,57 Гбайт
Продолжительность : 2 ч. 49 м.
Общий поток : 5540 Кбит/сек
Название фильма : The Hobbit An Unexpected Journey.3D.2012.(Anaglyph_Dubois)
Дата кодирования : UTC 2013-04-15 16:10:20
Программа кодирования : mkvmerge v3.4.0 ('Rapunzel') сборка от May 15 2010 09:38:20
Библиотека кодирования : libebml v0.8.0 + libmatroska v0.9.0

Видео
Идентификатор : 1
Формат : AVC
Формат/Информация : Advanced Video Codec
Профиль формата : High@L3.1
Параметр CABAC формата : Да
Параметр ReFrames формата : 4 кадра
Идентификатор кодека : V_MPEG4/ISO/AVC
Продолжительность : 2 ч. 49 м.
Битрейт : 4011 Кбит/сек
Ширина : 1280 пикселей
Высота : 528 пикселей
Соотношение сторон : 2,40:1
Режим частоты кадров : Постоянный
Частота кадров : 23,976 кадра/сек
Цветовое пространство : YUV
Субдискретизация насыщенности : 4:2:0
Битовая глубина : 8 бит
Тип развёртки : Прогрессивная
Бит/(Пиксели*Кадры) : 0.248
Размер потока : 4,62 Гбайт (70%)
Заголовок : The.Hobbit.An.Unexpected.Journey.3D.2012.BDRip(Anaglyph_Dubois).mkv
Библиотека кодирования : x264 core 120
Настройки программы : cabac=1 / ref=3 / deblock=1:-1:-1 / analyse=0x3:0x113 / me=hex / subme=2 / psy=1 / psy_rd=1.00:0.15 / mixed_ref=1 / me_range=16 / chroma_me=1 / trellis=0 / 8x8dct=1 / cqm=0 / deadzone=21,11 / fast_pskip=1 / chroma_qp_offset=0 / threads=1 / sliced_threads=0 / nr=0 / decimate=1 / interlaced=0 / bluray_compat=0 / constrained_intra=0 / bframes=3 / b_pyramid=2 / b_adapt=1 / b_bias=0 / direct=1 / weightb=1 / open_gop=0 / weightp=2 / keyint=240 / keyint_min=24 / scenecut=40 / intra_refresh=0 / rc_lookahead=40 / rc=abr / mbtree=1 / bitrate=4011 / ratetol=1.0 / qcomp=0.60 / qpmin=3 / qpmax=69 / qpstep=4 / ip_ratio=1.40 / aq=1:1.00
Язык : English
Default : Да
Forced : Нет
Основные цвета : BT.709
Характеристики трансфера : BT.709
Коэффициенты матрицы : BT.709

Аудио #1
Идентификатор : 2
Формат : AC-3
Формат/Информация : Audio Coding 3
Расширение режима : CM (complete main)
Параметр Endianness формата : Big
Идентификатор кодека : A_AC3
Продолжительность : 2 ч. 49 м.
Вид битрейта : Постоянный
Битрейт : 448 Кбит/сек
Каналы : 6 каналов
Расположение каналов : Front: L C R, Side: L R, LFE
Частота : 48,0 КГц
Битовая глубина : 16 бит
Метод сжатия : С потерями
Размер потока : 544 Мбайт (8%)
Заголовок : AC3 / 5.1 ch / 448 kbps / Русский дубляж, BD3D CEE
Язык : Russian
Default : Нет
Forced : Нет

Аудио #2
Идентификатор : 3
Формат : AC-3
Формат/Информация : Audio Coding 3
Расширение режима : CM (complete main)
Параметр Endianness формата : Big
Идентификатор кодека : A_AC3
Продолжительность : 2 ч. 49 м.
Вид битрейта : Постоянный
Битрейт : 448 Кбит/сек
Каналы : 6 каналов
Расположение каналов : Front: L C R, Side: L R, LFE
Частота : 48,0 КГц
Битовая глубина : 16 бит
Метод сжатия : С потерями
Размер потока : 544 Мбайт (8%)
Заголовок : AC3 / 5.1 ch / 448 kbps / Украинский дубляж, BD3D CEE
Язык : Ukrainian
Default : Нет
Forced : Нет

Аудио #3
Идентификатор : 4
Формат : AC-3
Формат/Информация : Audio Coding 3
Расширение режима : CM (complete main)
Параметр Endianness формата : Big
Идентификатор кодека : A_AC3
Продолжительность : 2 ч. 49 м.
Вид битрейта : Постоянный
Битрейт : 640 Кбит/сек
Каналы : 6 каналов
Расположение каналов : Front: L C R, Side: L R, LFE
Частота : 48,0 КГц
Битовая глубина : 16 бит
Метод сжатия : С потерями
Размер потока : 777 Мбайт (12%)
Заголовок : AC3 / 5.1 ch / 640 kbps / Английский original, BD3D CEE
Язык : English
Default : Нет
Forced : Нет

Текст #1
Идентификатор : 5
Формат : UTF-8
Идентификатор кодека : S_TEXT/UTF8
Идентификатор кодека/Информация : UTF-8 Plain Text
Заголовок : Forced
Язык : Russian
Default : Нет
Forced : Нет

Текст #2
Идентификатор : 6
Формат : UTF-8
Идентификатор кодека : S_TEXT/UTF8
Идентификатор кодека/Информация : UTF-8 Plain Text
Заголовок : Full, BD3D CEE
Язык : Russian
Default : Нет
Forced : Нет

Текст #3
Идентификатор : 7
Формат : UTF-8
Идентификатор кодека : S_TEXT/UTF8
Идентификатор кодека/Информация : UTF-8 Plain Text
Заголовок : Full, Voronine
Язык : Russian
Default : Нет
Forced : Нет

Текст #4
Идентификатор : 8
Формат : UTF-8
Идентификатор кодека : S_TEXT/UTF8
Идентификатор кодека/Информация : UTF-8 Plain Text
Заголовок : Forced
Язык : Ukrainian
Default : Нет
Forced : Нет

Текст #5
Идентификатор : 9
Формат : UTF-8
Идентификатор кодека : S_TEXT/UTF8
Идентификатор кодека/Информация : UTF-8 Plain Text
Заголовок : SDH
Язык : English
Default : Нет
Forced : Нет

Текст #6
Идентификатор : 10
Формат : UTF-8
Идентификатор кодека : S_TEXT/UTF8
Идентификатор кодека/Информация : UTF-8 Plain Text
Заголовок : SDH Color
Язык : English
Default : Нет
Forced : Нет


Хоббит: Нежданное путешествие скачать торрент


pb.wtf



Скачать Хоббит: Нежданное путешествие в 3Д через торрент http://i33.fastpic.ru/big/2013/0416/3c/0d536328c45fb54f0660055152b7393c.gif Скачать, смотреть онлайн Хоббит: Нежданное путешествие в 3Д бесплантно в хорошем качестве Описание: Фильм повествует о путешествии Бильбо Бэггинса, который пускается в грандиозный поход, целью которого является отвоевание ... 9.6 10 24
Info! Золотая раздача, скачанное не засчитывается.
Торрент: Зарегистрирован [2013-04-16 10:00] · скачан: 345 раз
Статус: √ проверено
Размер: 6.57 GB
Как cкачать? Как скачать Хоббит: Нежданное путешествие в 3Д через торрент | UTorrent

28-11-2019 20:33  

Отключить всю рекламу на сайте

16-04-2013 15:31 Хоббит: Нежданное путешествие в 3Д Скачать торрент  

без зд смотреть можно или нет?pb.wtf



16-04-2013 16:05 Хоббит: Нежданное путешествие в 3Д Скачать торрент  

Можно, но зачем? Есть аналогичные релизы в 2D, на любой вкус.pb.wtf



    Дорогой пользователь! Огромная просьба, поблагодарите релизера, оцените раздачу и оставьте свои комментарий, если Вы скачали Хоббит: Нежданное путешествие в 3Д через торрент бесплатно!
    Комментировать посты могут только пользователи прошедшие не сложную регистрацию
    Показать сообщения:    

    Хоббит: Нежданное путешествие в 3Д через торрент
    Скачать бесплатно Хоббит: Нежданное путешествие в 3Д
    Хоббит: Нежданное путешествие в 3Д скачать торрент
    Хоббит: Нежданное путешествие в 3Д смотреть онлайн
    Cкачать фильм Хоббит: Нежданное путешествие в 3Д бесплатно
    Хоббит: Нежданное путешествие в 3Д скачать торрент в хорошем качестве
    Хоббит: Нежданное путешествие в 3Д смотреть онлайн бесплатно в хорошем качестве


    Вы не можете начинать темы
    Вы не можете отвечать на сообщения
    Вы не можете редактировать свои сообщения
    Вы не можете удалять свои сообщения
    Вы не можете голосовать в опросах
    Вы не можете прикреплять файлы к сообщениям
    Вы можете скачивать файлы