Ссылка на приватное зеркало нашего сайта всего за 1$. Внимание количество ограничено!!!

2 сезон

iTunes

1 сезон

1

2 сезон

2 сезон

iTunes

1 сезон

RePack

30

Новинка

ВАЖНО

ИГРА 18+

pack

RePack

MK11
pack

Забери бонус

RePack

jed

!!Акция!!

Alien_Rage

RePack

fifa19

RePack

Assassins Creed: Odyssey

RePack

NEED FOR SPEED™ PAYBACK

4 сезон

9 сезон

Бесстыжие 9 сезон

Все сериалы

все сериалы на PB.wtf

RePack

FAR CRY 5
  

План Б / The Back-up Plan (Алан Пол) [2010 г., мелодрама, комедия, BDRip, MVO, лицензия] pb.wtf

План Б через торрент pb.wtf

Размер: 2.18 GB | Добавлен: 7 лет 7 мес. назад | Торрент скачан:18 раз
Скачать  

27-04-2013 14:50 План Б Скачать торрент  




Год выпуска: 2010
Страна: США
Жанр: мелодрама, комедия,
Продолжительность: 104 мин. / 01:44
Перевод: Профессиональный многоголосый, Лицензия
Тип релиза: Лицензия
Субтитры: Русские, Английские
Режиссер: Алан Пол
Продюссер: Тодд Блэк, Джейсон Блюменталь, Стив Тиш
Сценарий: Кейт Анджело
Бюджет: $35 000 000
Премьера в мире: 23 апреля 2010


В ролях: Дженнифер Лопез, Алекс О`Лахлан, Михаэлла Уоткинс, Эрик Кристиан Олсен, Энтони Андерсон, Норин ДеВулф, Мелисса МакКарти, Том Босли, Мэрибет Монро, Дэннил Харрис,
Описание: Каждая женщина за 30, мечтающая стать матерью, должна иметь «План Б», и у одинокой Зои такой план был. Отчаявшись встретить своего суженого, она прибегла к деликатной процедуре по искусственному оплодотворению. И в тот самый день, когда тест на беременность показал положительный результат, она встретила Стэна. Вот только как рассказать ему о своём «интересном положении» и при этом не разрушить только что завязавшиеся отношения.
Качество: BDRip
Формат: AVI
Видео кодек: XviD
Аудио кодек: AC3
Видео: 2084 Кбит/сек 720 х 304 пикселя 23,976 кадра/сек
Аудио#1: 48 kHz, AC3 Dolby Digital, 3/2 (L,C,R,l,r) + LFE ch, ~448.00 kbps avg
Аудио#2: 48 kHz, AC3 Dolby Digital, 3/2 (L,C,R,l,r) + LFE ch, ~448.00 kbps avg
Релиз от:

скриншот   скриншот   скриншот   скриншот   скриншот   скриншот   скриншот   скриншот   скриншот  





Общее
Формат : AVI
Формат/Информация : Audio Video Interleave
Профиль формата : OpenDML
Размер файла : 2,18 Гбайт
Продолжительность : 1 ч. 44 м.
Общий поток : 2998 Кбит/сек
Название фильма : План Б / The Back-up Plan (2010) BDRip
Режиссёр : xxL
Программа кодирования : VirtualDubMod 1.5.10.2 (build 2542/release)
Примечание : 27.08.2010

Видео
Идентификатор : 0
Формат : MPEG-4 Visual
Профиль формата : Advanced Simple@L5
Параметр BVOP формата : 1
Параметр QPel формата : Нет
Параметр GMC формата : Без точки перехода
Параметр матрицы формата : Выборочная
Идентификатор кодека : XVID
Идентификатор кодека/Подсказка : XviD
Продолжительность : 1 ч. 44 м.
Битрейт : 2084 Кбит/сек
Ширина : 720 пикселей
Высота : 304 пикселя
Соотношение сторон : 2,35:1
Частота кадров : 23,976 кадра/сек
Цветовое пространство : YUV
Субдискретизация насыщенности : 4:2:0
Битовая глубина : 8 бит
Тип развёртки : Прогрессивная
Метод сжатия : С потерями
Бит/(Пиксели*Кадры) : 0.397
Размер потока : 1,52 Гбайт (70%)
Библиотека кодирования : XviD 1.2.1 (UTC 2008-12-04)

Аудио #1
Идентификатор : 1
Формат : AC-3
Формат/Информация : Audio Coding 3
Расширение режима : CM (complete main)
Параметр Endianness формата : Big
Идентификатор кодека : 2000
Продолжительность : 1 ч. 44 м.
Вид битрейта : Постоянный
Битрейт : 448 Кбит/сек
Каналы : 6 каналов
Расположение каналов : Front: L C R, Side: L R, LFE
Частота : 48,0 КГц
Битовая глубина : 16 бит
Метод сжатия : С потерями
Размер потока : 334 Мбайт (15%)
Выравнивание : Разделение по промежуткам
Продолжительность промежутка : 42 мс. (1,00 видеокадр)
Время предзагрузки промежутка : 500 мс.

Аудио #2
Идентификатор : 2
Формат : AC-3
Формат/Информация : Audio Coding 3
Расширение режима : CM (complete main)
Параметр Endianness формата : Big
Идентификатор кодека : 2000
Продолжительность : 1 ч. 44 м.
Вид битрейта : Постоянный
Битрейт : 448 Кбит/сек
Каналы : 6 каналов
Расположение каналов : Front: L C R, Side: L R, LFE
Частота : 48,0 КГц
Битовая глубина : 16 бит
Метод сжатия : С потерями
Размер потока : 334 Мбайт (15%)
Выравнивание : Разделение по промежуткам
Продолжительность промежутка : 42 мс. (1,00 видеокадр)
Время предзагрузки промежутка : 500 мс.


pb.wtf



Скачать План Б через торрент http://pic.kartinco.top/images/2/g81xj9x9y9.jpg Скачать фильм План Б через торрент бесплантно в хорошем качестве Описание: Каждая женщина за 30, мечтающая стать матерью, должна иметь «План Б», и у одинокой Зои такой план был. Отчаявшись встретить ... 7.4 10 7
Info! Золотая раздача, скачанное не засчитывается.
Торрент: Зарегистрирован [2013-04-27 14:50] · скачан: 18 раз
Статус: √ проверено
Размер: 2.18 GB
Как cкачать? Как скачать План Б через торрент | qTorrent

% Раздел Тема Автор DL S | L
Фильмы 2010 [ 1.37 GB ] План Б / The Back-up Plan [2010 DVDRip лицензия] tyry999 Скачать
1 | 0
Фильмы 2010 [ 1.46 GB ] План Б / Back-up Plan The [2010 ... HDRip] Venxxx Скачать
1 | 0

28-11-2019 20:33  

Отключить всю рекламу на сайте

27-04-2013 17:08 План Б Скачать торрент  

Я так и не понял????? Когда-же начнется раздача!!!!!!! :hmmm pb.wtf



28-04-2013 07:37 План Б Скачать торрент  

Да за 16 часов!!!!!???? АЖ ЦЕЛЫХ 196 МБ!!!!!!!!!! ШУТКА-ЛИ!!!!!! Шикарная раздача!!!!!! :good2: :scare: sarcasticpb.wtf



29-04-2013 07:59 План Б Скачать торрент  

СПАСИБО за раздачу!!!!!?????? Наверное ОЧЕНЬ хороший фильм!!!!!!!???????????????????? : pb.wtf



    Дорогой пользователь! Огромная просьба, поблагодарите релизера, оцените раздачу и оставьте свои комментарий, если Вы скачали План Б через торрент бесплатно! Внесите свою лепту в развитие PiratBit!
    Комментировать посты могут только пользователи прошедшие не сложную регистрацию
    Показать сообщения:    

    План Б через торрент
    Скачать бесплатно План Б
    План Б скачать торрент
    План Б смотреть онлайн
    Cкачать фильм План Б бесплатно
    План Б скачать торрент в хорошем качестве
    План Б смотреть онлайн бесплатно в хорошем качестве


    Вы не можете начинать темы
    Вы не можете отвечать на сообщения
    Вы не можете редактировать свои сообщения
    Вы не можете удалять свои сообщения
    Вы не можете голосовать в опросах
    Вы не можете прикреплять файлы к сообщениям
    Вы можете скачивать файлы