Всегда рабочее зеркало без VPN и Proxy просто перед .vidak.icu напиши любое слово или цифру, Пример http://hmd9.vidak.icu

MVO

2 сезон

1 сезон

1

1 сезон

iTunes

2 сезон

13

1 сезон

Распродажа

pack

Рекомендуем

Пиратка

30

ВАЖНО

RePack

MK11

RePack

jed

RePack

fifa19

RePack

RDR2

RePack

NEED FOR SPEED™ PAYBACK

Кинопоиск HD

6 сезон

 Острые козырьки 6 сезон

Все сериалы

все сериалы на PB.wtf

RePack

FAR CRY 5

Anonymous, нам критически не хватает 5601 руб. на оплату серверов и переферии за Апрель, помоги нам пожалуйста, вся надежда только на тебя. В благодарность мы отключим тебе всю рекламу на сайте!

×
  
Magnet ссылка

Реванш / Revansa (Серджиу Николаеску) [1978 г., боевик, криминал, DVDRip, Авторский (одноголосый)] pb.wtf

Реванш через торрент pb.wtf

Размер: 1.46 GB | Добавлен: 9 лет назад | Торрент скачан:38 раз
Смотреть онлайн Реванш | Скачать    Ребята, помогите собрать деньги на оплату серверов!!!

06-05-2013 17:03 Реванш Скачать торрент  

Реванш / Revansa
Год выпуска: 1978
Страна: Румыния
Жанр: боевик, криминал,
Продолжительность: 01:41:39
Перевод: Авторский (одноголосый) Антон Алексеев

Режиссер: Серджиу Николаеску
Сценарий: Винтилэ Корбул, Мирча Гандила, Серджиу Николаеску

Мировой рейтинг IMDB 7.00 (362)



В ролях: Мирча Албулеску, Ион Бесою, Жан Константин, Юрие Дарие, Георге Диникэ, Александру Добреску, Ион Маринеску, Серджиу Николаеску, Амза Пелля, Эманоил Петруц,

Описание: Популярный в советские времена фильм-боевик теперь в полной цветной версии (на 10 минут длиннее). Режиссерская (непрокатная) версия фильма с авторским переводом.
"Вы вероятно помните эти кадры из фильма "Комиссар полиции обвиняет", в нём комиссар полиции из Бухареста Тудор Молдован попал в ловушку и получает смертельные ранения. Прошло одиннадцать месяцев", - произносит за кадром голос диктора... Начало фильма повергло в шок! Он жив!!!
Зима 1941 года. Будучи официально похороненным, ему приходится сменить фамилию. Так появился Тудор Миклован.
По-прежнему мастерски владеющий пистолетом он принимается за незавершенное - месть главарям легионеров, заказчикам расстрела заключенных Вераги и убийства матери.
Полтора часа захватывающего действа, более жесткого и жестокого, чем в предыдущем фильме (чего только стоит сцена отрезания носа Липпе опасной бритвой)!!! А финал картины не менее шокирует, чем начало. Взяв в руки чемодан с взрывчаткой и приковав себя к нему за руку, Миклован отправляется в логово легионеров (которые к этому времени перешли на официальную службу в СС). Но, предвидя финал, злодеи похищают сына комиссара. И к сожалению он не в силах предотвратить трагедию: сына взрывают вместе с автобусом ...


Качество: DVDRip
Формат: AVI
Видео кодек: XviD
Аудио кодек: AC3
Видео: 720 x 400 (16:9), 25 fps, XviD, 1853 kbps, 0.257 bit/pixel
Аудио#1: 48 kHz, AC3 Dolby Digital, 2/0 ch, 192 kbps, AVO (Антон Алексеев)



скриншот   скриншот   скриншот   скриншот   скриншот   скриншот  
Общее
Полное имя : E:Revang.(1978).avi
Формат : AVI
Формат/Информация : Audio Video Interleave
Размер файла : 1,46 Гбайт
Продолжительность : 1 ч. 41 м.
Общий поток : 2055 Кбит/сек
Программа кодирования : VirtualDubModRus 1.5.10.2 (build 2542/release)
Библиотека кодирования : VirtualDubMod build 2542/release

Видео
Идентификатор : 0
Формат : MPEG-4 Visual
Профиль формата : Advanced Simple@L5
Параметр BVOP формата : 2
Параметр QPel формата : Нет
Параметр GMC формата : Без точки перехода
Параметр матрицы формата : Default (H.263)
Режим смешивания : Сжатый битовый поток
Идентификатор кодека : XVID
Идентификатор кодека/Подсказка : XviD
Продолжительность : 1 ч. 41 м.
Битрейт : 1853 Кбит/сек
Ширина : 720 пикс.
Высота : 400 пикс.
Соотношение сторон : 16:9
Частота кадров : 25,000 кадр/сек
Цветовое пространство : YUV
Подвыборка цветности : 4:2:0
Битовая глубина : 8 бит
Тип развёртки : Прогрессивная
Метод сжатия : С потерями
Бит/(Пиксели*Кадры) : 0.257
Размер потока : 1,32 Гбайт (90%)
Библиотека кодирования : XviD 61

Аудио
Идентификатор : 1
Формат : AC-3
Формат/Информация : Audio Coding 3
Расширение режима : CM (complete main)
Идентификатор кодека : 2000
Продолжительность : 1 ч. 41 м.
Вид битрейта : Постоянный
Битрейт : 192 Кбит/сек
Канал(ы) : 2 канала(ов)
Расположение каналов : Front: L R
Частота : 48,0 КГц
Битовая глубина : 16 бит
Метод сжатия : С потерями
Размер потока : 140 Мбайт (9%)
Выравнивание : Разделение по промежуткам
Продолжительность промежутка : 40 мс. (1,00 видеокадр)
Время предзагрузки промежутка : 500 ms
Язык : Russian


Реванш скачать торрент


pb.wtf



Скачать Реванш через торрент http://i47.fastpic.ru/big/2013/0506/dc/109359d8a334f335f6f84dca0e50c6dc.jpg Скачать, смотреть онлайн Реванш бесплантно в хорошем качестве Описание: Популярный в советские времена фильм-боевик теперь в полной цветной версии (на 10 минут длиннее). Режиссерская (непрокатная) ... 8.3 10 6
Info! Золотая раздача, скачанное не засчитывается.
Торрент: Зарегистрирован [2013-05-06 17:03] · скачан: 38 раз
Статус: √ проверено
Размер: 1.46 GB
Как cкачать? Как скачать Реванш через торрент | UTorrent

28-11-2019 20:33  

Отключить всю рекламу на сайте

06-05-2013 18:03 Реванш Скачать торрент  

Фильм моей молодости Супер!!!!!pb.wtf



06-05-2013 18:09 Реванш Скачать торрент  

Фильм моей молодости( 5 класс) Супер!!!!! 4pb.wtf



    Дорогой пользователь! Огромная просьба, поблагодарите релизера, оцените раздачу и оставьте свои комментарий, если Вы скачали Реванш через торрент бесплатно!
    Комментировать посты могут только пользователи прошедшие не сложную регистрацию
    Показать сообщения:    

    Реванш через торрент
    Скачать бесплатно Реванш
    Реванш скачать торрент
    Реванш смотреть онлайн
    Cкачать фильм Реванш бесплатно
    Реванш скачать торрент в хорошем качестве
    Реванш смотреть онлайн бесплатно в хорошем качестве


    Вы не можете начинать темы
    Вы не можете отвечать на сообщения
    Вы не можете редактировать свои сообщения
    Вы не можете удалять свои сообщения
    Вы не можете голосовать в опросах
    Вы не можете прикреплять файлы к сообщениям
    Вы можете скачивать файлы