Ссылка на приватное зеркало нашего сайта всего за 1$. Внимание количество ограничено!!!

2 сезон

iTunes

1 сезон

1

2 сезон

2 сезон

iTunes

1 сезон

RePack

30

Ultimate

ВАЖНО

ИГРА 18+

pack

RePack

MK11
pack

Забери бонус

RePack

jed

!!Акция!!

Alien_Rage

RePack

fifa19

RePack

Assassins Creed: Odyssey

RePack

NEED FOR SPEED™ PAYBACK

4 сезон

9 сезон

Бесстыжие 9 сезон

Все сериалы

все сериалы на PB.wtf

RePack

FAR CRY 5
  

Тревожный вызов / The Call (Брэд Андерсон) [2013 г., Триллер, BDRip 1080p, Дубляж + Оригинал] pb.wtf

Тревожный вызов через торрент pb.wtf

Размер: 6.85 GB | Добавлен: 7 лет 5 мес. назад | Торрент скачан:346 раз
Скачать  

12-06-2013 09:59 Тревожный вызов Скачать торрент  

Тревожный вызов / The CallГод выпуска: 2013
Страна: США, Apotheosis Media Group, Emergency Films, Troika Pictures
Жанр: Триллер,
Продолжительность: 01:34:13
Перевод: Дубляж + Оригинал
Субтитры: Английские

Режиссер: Брэд Андерсон

В ролях: Холли Берри, Эбигейл Бреслин, Моррис Честнат, Майкл Эклунд, Майкл Империоли, Рома Маффиа, Эви Томпсон, Стивен Уильямс, Жустина Мачадо,

Описание: Фильм расскажет про оператора колл-центра 911, куда поступает звонок от девочки, ставшей жертвой маньяка. Героине предстоит столкнуться со своими кошмарами, чтобы спасти девушку...

Качество: BDRip 1080p
Формат: MKV
Видео кодек: MPEG4
Аудио кодек: AC3/DTS
Видео: MPEG-4 AVC, 8450 Кбит/с, 1920x1040 23,976fps
Аудио#1: Русский (АС3, 6 ch, 448 Кбит/с) 48,0 КГц
Аудио#2: английский (DTS, 6 ch, 1510 Кбит/с) 48,0 КГц
Релиз от:
General
Unique ID : 231770393380271785100354317704469844118 (0xAE5D5AA534CD67DAB1DAE6164B3E9096)
Complete name : The.Call.2012.D.BDRip.1080p.IRONCLUB.mkv
Format : Matroska
Format version : Version 2
File size : 6.85 GiB
Duration : 1h 34mn
Overall bit rate : 10.4 Mbps
Movie name : IRONCLUB
Encoded date : UTC 2013-06-12 08:27:44
Writing application : mkvmerge v5.2.0 ('I can't explain') built on Dec 18 2011 18:12:03
Writing library : libebml v1.2.3 + libmatroska v1.3.0

Video
ID : 1
Format : AVC
Format/Info : Advanced Video Codec
Format profile : High@L4.1
Format settings, CABAC : Yes
Format settings, ReFrames : 4 frames
Codec ID : V_MPEG4/ISO/AVC
Duration : 1h 34mn
Bit rate : 8 450 Kbps
Width : 1 920 pixels
Height : 1 040 pixels
Display aspect ratio : 1.85:1
Frame rate : 23.976 fps
Color space : YUV
Chroma subsampling : 4:2:0
Bit depth : 8 bits
Scan type : Progressive
Bits/(Pixel*Frame) : 0.177
Stream size : 5.42 GiB (79%)
Title : The.Call.2013.1080p.BluRay.x264-SPARKS
Writing library : x264 core 133 r2334 a3ac64b
Encoding settings : cabac=1 / ref=4 / deblock=1:0:0 / analyse=0x3:0x133 / me=umh / subme=7 / psy=1 / psy_rd=1.00:0.00 / mixed_ref=1 / me_range=16 / chroma_me=1 / trellis=1 / 8x8dct=1 / cqm=0 / deadzone=21,11 / fast_pskip=0 / chroma_qp_offset=-2 / threads=12 / lookahead_threads=2 / sliced_threads=0 / nr=0 / decimate=1 / interlaced=0 / bluray_compat=0 / constrained_intra=0 / bframes=3 / b_pyramid=2 / b_adapt=1 / b_bias=0 / direct=1 / weightb=1 / open_gop=0 / weightp=2 / keyint=250 / keyint_min=23 / scenecut=40 / intra_refresh=0 / rc_lookahead=40 / rc=2pass / mbtree=1 / bitrate=8450 / ratetol=1.0 / qcomp=0.60 / qpmin=0 / qpmax=69 / qpstep=4 / cplxblur=20.0 / qblur=0.5 / ip_ratio=1.40 / aq=1:1.00
Language : English
Default : Yes
Forced : Yes

Audio #1
ID : 2
Format : AC-3
Format/Info : Audio Coding 3
Mode extension : CM (complete main)
Format settings, Endianness : Big
Codec ID : A_AC3
Duration : 1h 34mn
Bit rate mode : Constant
Bit rate : 448 Kbps
Channel(s) : 6 channels
Channel positions : Front: L C R, Side: L R, LFE
Sampling rate : 48.0 KHz
Bit depth : 16 bits
Compression mode : Lossy
Stream size : 302 MiB (4%)
Title : DD 5.1 @ 448 kbps - Dub, R5
Language : Russian
Default : Yes
Forced : Yes

Audio #2
ID : 3
Format : DTS
Format/Info : Digital Theater Systems
Codec ID : A_DTS
Duration : 1h 34mn
Bit rate mode : Constant
Bit rate : 1 510 Kbps
Channel(s) : 6 channels
Channel positions : Front: L C R, Side: L R, LFE
Sampling rate : 48.0 KHz
Bit depth : 24 bits
Compression mode : Lossy
Stream size : 1 018 MiB (15%)
Title : DTS 5.1 @ 1536 kbps
Language : English
Default : No
Forced : No

Text
ID : 4
Format : UTF-8
Codec ID : S_TEXT/UTF8
Codec ID/Info : UTF-8 Plain Text
Language : English
Default : No
Forced : No

Menu
00:00:00.000 : en:00:00:00.000
00:06:26.678 : en:00:06:26.678
00:12:30.500 : en:00:12:30.500
00:17:15.034 : en:00:17:15.034
00:24:12.409 : en:00:24:12.409
00:30:43.759 : en:00:30:43.759
00:36:00.075 : en:00:36:00.075
00:42:41.726 : en:00:42:41.726
00:46:51.892 : en:00:46:51.892
00:49:57.912 : en:00:49:57.912
00:54:50.913 : en:00:54:50.913
01:01:31.563 : en:01:01:31.563
01:06:08.173 : en:01:06:08.173
01:12:30.638 : en:01:12:30.638
01:20:04.216 : en:01:20:04.216
01:26:01.782 : en:01:26:01.782
pb.wtf



Скачать Тревожный вызов через торрент http://img841.imageshack.us/img841/8861/folderwbt.jpg Скачать фильм Тревожный вызов через торрент бесплантно в хорошем качестве Описание: Фильм расскажет про оператора колл-центра 911, куда поступает звонок от девочки, ставшей жертвой маньяка. Героине предстоит ... 8 10 14
Info! Золотая раздача, скачанное не засчитывается.
Торрент: Зарегистрирован [2013-06-12 09:59] · скачан: 346 раз
Статус: √ проверено
Размер: 6.85 GB
Как cкачать? Как скачать Тревожный вызов через торрент | qTorrent

% Раздел Тема Автор DL S | L
Фильмы [HD 720p, 1080p] (Хороший звук DUB, MVO) [ 11.61 GB ] Тревожный вызов / The Call [2013 BDRip 1080p] DUB AVO msltel Скачать
1 | 0
Фильмы [HD 720p, 1080p] (Хороший звук DUB, MVO) [ 4.62 GB ] Тревожный вызов / The Call [2013 BDRip 720p] DUB AVO msltel Скачать
1 | 0
Фильмы 2013 [DVDrip, WEB-DLRip, HDrip] [ 1.46 GB ] Тревожный вызов / The Call [2013 BDRip-AVC] DUB potroks Скачать
1 | 0
Фильмы 2013 [DVDrip, WEB-DLRip, HDrip] [ 2.19 GB ] Тревожный вызов / The Call [2013 BDRip-AVC] DUB potroks Скачать
1 | 0
Фильмы [HD 720p, 1080p] (Хороший звук DUB, MVO) [ 4.66 GB ] Тревожный вызов / The Call [2013 BDRip 720p лицензия] Lyfe Скачать
1 | 0
Фильмы 2013 [DVDrip, WEB-DLRip, HDrip] [ 1.37 GB ] Тревожный вызов / The Call [2013 DVDRip лицензия] Ворон Скачать
1 | 0
Фильмы (DVD фильмы) [ 3.9 GB ] Тревожный вызов / The Call [2013 DVD5] R5 voovaz Скачать
1 | 0

28-11-2019 20:33  

Отключить всю рекламу на сайте

12-06-2013 16:25 Тревожный вызов Скачать торрент  

Trava-HD

  
тег поправь.pb.wtf



    Дорогой пользователь! Огромная просьба, поблагодарите релизера, оцените раздачу и оставьте свои комментарий, если Вы скачали Тревожный вызов через торрент бесплатно! Внесите свою лепту в развитие PiratBit!
    Комментировать посты могут только пользователи прошедшие не сложную регистрацию
    Показать сообщения:    

    Тревожный вызов через торрент
    Скачать бесплатно Тревожный вызов
    Тревожный вызов скачать торрент
    Тревожный вызов смотреть онлайн
    Cкачать фильм Тревожный вызов бесплатно
    Тревожный вызов скачать торрент в хорошем качестве
    Тревожный вызов смотреть онлайн бесплатно в хорошем качестве


    Вы не можете начинать темы
    Вы не можете отвечать на сообщения
    Вы не можете редактировать свои сообщения
    Вы не можете удалять свои сообщения
    Вы не можете голосовать в опросах
    Вы не можете прикреплять файлы к сообщениям
    Вы можете скачивать файлы