Ссылка на приватное зеркало нашего сайта всего за 1$. Внимание количество ограничено!!!

2 сезон

iTunes

1 сезон

1

2 сезон

2 сезон

iTunes

1 сезон

RePack

30

Ultimate

ВАЖНО

ИГРА 18+

pack

RePack

MK11
pack

Забери бонус

RePack

jed

!!Акция!!

Alien_Rage

RePack

fifa19

RePack

Assassins Creed: Odyssey

RePack

NEED FOR SPEED™ PAYBACK

4 сезон

9 сезон

Бесстыжие 9 сезон

Все сериалы

все сериалы на PB.wtf

RePack

FAR CRY 5
  

Влacть страха / The Bone Collector (Филлип Нойс) [1999 г., триллер, драма, криминал, детектив, BDRip 720p, Дубляж, лицензия] pb.wtf

Влacть страха через торрент pb.wtf

Размер: 6.1 GB | Добавлен: 7 лет 4 мес. назад | Торрент скачан:68 раз
Скачать  

07-07-2013 01:29 Влacть страха Скачать торрент  

Влacть страха / The Bone Collector «Serial killer vs. forensic genius» Год выпуска: 1999
Страна: США
Жанр: триллер, драма, криминал, детектив
Продолжительность: 01:57:57
Перевод: Дубляж, Лицензия
Тип релиза: Лицензия
Субтитры: Есть

Режиссер: Филлип Нойс
Продюссер: Мартин Брегман, Майкл Брегман, Луис А. Строллер
Сценарий: Джереми Иэкоун, Джеффри Дивер

Бюджет: $73 000 000
Премьера в мире: 29 августа 1999





В ролях: Дензел Вашингтон, Анджелина Джоли, Куин Латифа, Майкл Рукер, Майк МакГлоун, Луис Гузман, Лиленд Орсер, Джон Бенжамин Хикки, Бобби Каннавейл, Эд О’Нил, Ричард Биман, Оливия Бирклунд, Гэри Суонсон, Джеймс Буллейт, Фрэнк Фонтейн, Зена Грэй, Дэниэл Брошу, Десмонд Кэмпбелл, Кристиан Велиз, Мерседес Гомез, Мэри Хеммет, Аманда Гэй, Стив Адамс, Ларри Дэй, Бурк Лоуренс, Терри Симпсон, Эрик Дэвис, Артур Холден, Ясмин Давио, Кинэн Макуильям, Дэвид Уоршофски, Матео Гомез, Тед Уиттэлл, Питер Майкл Диллон, Джонатан Старк, Фульвио Чечере, Хэл Шерман, Расселл Юэнь, Андерсон С. Брэдшоу,

Описание: Линкольн Райм — знаменитый криминалист, автор множества книг, навсегда прикованный к больничной постели. Амелия Донаги — начинающий полицейский, делающий первые неуверенные шаги по кровавым мостовым. Когда в городе появляется страшный маньяк, она становится глазами и ушами Райма на обезумевших от ужаса улицах.

С ее помощью гений криминалистики пытается разгадать тайный шифр, скрытый в непредсказуемых убийствах…


Качество: BDRip 720p
Формат: MKV
Видео кодек: H.264
Аудио кодек: AC3
Видео: 1280x534 (2.35:1), 23.976 fps, 4 590 Kbps (0.280 bit/pixel)
Аудио 1: русский, 48 kHz, AC3, 6 ch, 640 kbps avg, [Дублированный]
Аудио 2: русский, 48 kHz, AC3, 6 ch, 448 kbps avg, [Профессиональный многоголосый]
Аудио 3: русский, 48 kHz, AC3, 6 ch, 384 kbps avg, Сергей Визгунов [Авторский]
Аудио 4: русский, 48 kHz, AC3, 6 ch, 384 kbps avg, Андрей Гаврилов [Авторский]

Внешние файлы

Аудио: английский, 48 kHz, AC3, 6 ch, 640 kbps avg, [Оригинал]
Аудио: английский, 48 kHz, AC3, 2 ch, 192 kbps avg, [Комментарий]
Субтитры: русские
Субтитры: английские








Общее
Уникальный идентификатор : 195395483075966650873171396421859842894 (0x92FFCD1A7C88D8B0BBC08C4A8CFE9B4E)
Полное имя : F:Влacть страха.1999.x264.BDRip.720pVlast.straha.1999.x264.BDRip.720p.mkv
Формат : Matroska
Версия формата : Version 4 / Version 2
Размер файла : 5,42 Гбайт
Продолжительность : 1 ч. 57 м.
Общий поток : 6577 Кбит/сек
Название фильма : Влacть страха / The Bone Collector / 1999 / BDRip
Дата кодирования : UTC 2010-02-22 21:41:31
Программа кодирования : mkvmerge v5.9.0 ('On The Loose') built on Dec 9 2012 15:37:01
Библиотека кодирования : libebml v1.3.0 + libmatroska v1.4.0

Видео
Идентификатор : 1
Формат : AVC
Формат/Информация : Advanced Video Codec
Профиль формата : High@L4.1
Параметр CABAC формата : Да
Параметр ReFrames формата : 9 кадров
Идентификатор кодека : V_MPEG4/ISO/AVC
Продолжительность : 1 ч. 57 м.
Битрейт : 4590 Кбит/сек
Ширина : 1280 пикселей
Высота : 534 пикселя
Соотношение сторон : 2,40:1
Режим частоты кадров : Постоянный
Частота кадров : 23,976 кадра/сек
Цветовое пространство : YUV
Субдискретизация насыщенности : 4:2:0
Битовая глубина : 8 бит
Тип развёртки : Прогрессивная
Бит/(Пиксели*Кадры) : 0.280
Размер потока : 3,78 Гбайт (70%)
Библиотека кодирования : x264 core 133 r2334 a3ac64b
Настройки программы : cabac=1 / ref=9 / deblock=1:-1:-1 / analyse=0x3:0x113 / me=umh / subme=10 / psy=1 / psy_rd=1.00:0.15 / mixed_ref=1 / me_range=24 / chroma_me=1 / trellis=2 / 8x8dct=1 / cqm=0 / deadzone=21,11 / fast_pskip=0 / chroma_qp_offset=-3 / threads=6 / lookahead_threads=1 / sliced_threads=0 / nr=0 / decimate=1 / interlaced=0 / bluray_compat=0 / constrained_intra=0 / bframes=8 / b_pyramid=2 / b_adapt=2 / b_bias=0 / direct=1 / weightb=0 / open_gop=0 / weightp=2 / keyint=230 / keyint_min=23 / scenecut=40 / intra_refresh=0 / rc_lookahead=60 / rc=crf / mbtree=0 / crf=18.0 / qcomp=0.60 / qpmin=0 / qpmax=69 / qpstep=4 / vbv_maxrate=50000 / vbv_bufsize=62500 / crf_max=0.0 / nal_hrd=none / ip_ratio=1.40 / pb_ratio=1.30 / aq=1:0.80
Язык : English
Default : Да
Forced : Нет

Аудио #1
Идентификатор : 2
Формат : AC-3
Формат/Информация : Audio Coding 3
Расширение режима : CM (complete main)
Параметр Endianness формата : Big
Идентификатор кодека : A_AC3
Продолжительность : 1 ч. 57 м.
Вид битрейта : Постоянный
Битрейт : 640 Кбит/сек
Каналы : 6 каналов
Расположение каналов : Front: L C R, Side: L R, LFE
Частота : 48,0 КГц
Битовая глубина : 16 бит
Метод сжатия : С потерями
Размер потока : 540 Мбайт (10%)
Заголовок : DUB
Язык : Russian
Default : Да
Forced : Нет

Аудио #2
Идентификатор : 3
Формат : AC-3
Формат/Информация : Audio Coding 3
Расширение режима : CM (complete main)
Параметр Endianness формата : Big
Идентификатор кодека : A_AC3
Продолжительность : 1 ч. 57 м.
Вид битрейта : Постоянный
Битрейт : 448 Кбит/сек
Каналы : 6 каналов
Расположение каналов : Front: L C R, Side: L R, LFE
Частота : 48,0 КГц
Битовая глубина : 16 бит
Метод сжатия : С потерями
Размер потока : 378 Мбайт (7%)
Заголовок : MVO
Язык : Russian
Default : Нет
Forced : Нет

Аудио #3
Идентификатор : 4
Формат : AC-3
Формат/Информация : Audio Coding 3
Расширение режима : CM (complete main)
Параметр Endianness формата : Big
Идентификатор кодека : A_AC3
Продолжительность : 1 ч. 57 м.
Вид битрейта : Постоянный
Битрейт : 384 Кбит/сек
Каналы : 6 каналов
Расположение каналов : Front: L C R, Side: L R, LFE
Частота : 48,0 КГц
Битовая глубина : 16 бит
Метод сжатия : С потерями
Размер потока : 324 Мбайт (6%)
Заголовок : AVO (Юрий Визгунов)
Язык : Russian
Default : Нет
Forced : Нет

Аудио #4
Идентификатор : 5
Формат : AC-3
Формат/Информация : Audio Coding 3
Расширение режима : CM (complete main)
Параметр Endianness формата : Big
Идентификатор кодека : A_AC3
Продолжительность : 1 ч. 57 м.
Вид битрейта : Постоянный
Битрейт : 384 Кбит/сек
Каналы : 6 каналов
Расположение каналов : Front: L C R, Side: L R, LFE
Частота : 48,0 КГц
Битовая глубина : 16 бит
Метод сжатия : С потерями
Размер потока : 324 Мбайт (6%)
Заголовок : AVO (Андрей Гаврилов)
Язык : Russian
Default : Нет
Forced : Нет

Внешние Аудио дороги

Общее
Полное имя : F:Влacть страха.1999.x264.BDRip.720pVlast.straha.1999.Commentary.eng.ac3
Формат : AC-3
Формат/Информация : Audio Coding 3
Размер файла : 162 Мбайт
Продолжительность : 1 ч. 57 м.
Режим общего битрейта : Постоянный
Общий поток : 192 Кбит/сек

Аудио 1
Формат : AC-3
Формат/Информация : Audio Coding 3
Профиль формата : Dolby Digital
Расширение режима : CM (complete main)
Параметр Endianness формата : Big
Продолжительность : 1 ч. 57 м.
Вид битрейта : Постоянный
Битрейт : 192 Кбит/сек
Каналы : 2 канала
Расположение каналов : Front: L R
Частота : 48,0 КГц
Битовая глубина : 16 бит
Метод сжатия : С потерями
Размер потока : 162 Мбайт (100%)

Общее
Полное имя : F:Влacть страха.1999.x264.BDRip.720pVlast.straha.1999.Original.eng.ac3
Формат : AC-3
Формат/Информация : Audio Coding 3
Размер файла : 540 Мбайт
Продолжительность : 1 ч. 57 м.
Режим общего битрейта : Постоянный
Общий поток : 640 Кбит/сек

Аудио 2
Формат : AC-3
Формат/Информация : Audio Coding 3
Расширение режима : CM (complete main)
Параметр Endianness формата : Big
Продолжительность : 1 ч. 57 м.
Вид битрейта : Постоянный
Битрейт : 640 Кбит/сек
Каналы : 6 каналов
Расположение каналов : Front: L C R, Side: L R, LFE
Частота : 48,0 КГц
Битовая глубина : 16 бит
Метод сжатия : С потерями
Размер потока : 540 Мбайт (100%)



pb.wtf



Скачать Влacть страха через торрент http://pic.kartinco.top/images/3/xdcrxem3vc.gif Скачать фильм Влacть страха через торрент бесплантно в хорошем качестве Описание: Линкольн Райм — знаменитый криминалист, автор множества книг, навсегда прикованный к больничной постели. Амелия Донаги — ... 8.8 10 13
Info! Золотая раздача, скачанное не засчитывается.
Торрент: Зарегистрирован [2013-07-07 01:29] · скачан: 68 раз
Статус: √ проверено
Размер: 6.1 GB
Как cкачать? Как скачать Влacть страха через торрент | qTorrent

28-11-2019 20:33  

Отключить всю рекламу на сайте

07-07-2013 18:08 Влacть страха Скачать торрент  

Неплохой триллер с еще не анорексичной Джоли.pb.wtf



11-11-2017 20:16 Влacть страха Скачать торрент  

Отличный фильм..pb.wtf



    Дорогой пользователь! Огромная просьба, поблагодарите релизера, оцените раздачу и оставьте свои комментарий, если Вы скачали Влacть страха через торрент бесплатно! Внесите свою лепту в развитие PiratBit!
    Комментировать посты могут только пользователи прошедшие не сложную регистрацию
    Показать сообщения:    

    Влacть страха через торрент
    Скачать бесплатно Влacть страха
    Влacть страха скачать торрент
    Влacть страха смотреть онлайн
    Cкачать фильм Влacть страха бесплатно
    Влacть страха скачать торрент в хорошем качестве
    Влacть страха смотреть онлайн бесплатно в хорошем качестве


    Вы не можете начинать темы
    Вы не можете отвечать на сообщения
    Вы не можете редактировать свои сообщения
    Вы не можете удалять свои сообщения
    Вы не можете голосовать в опросах
    Вы не можете прикреплять файлы к сообщениям
    Вы можете скачивать файлы