Ссылка на приватное зеркало нашего сайта всего за 1$. Внимание количество ограничено!!!

2 сезон

iTunes

1 сезон

1

2 сезон

2 сезон

iTunes

1 сезон

RePack

30

Ultimate

ВАЖНО

ИГРА 18+

pack

RePack

MK11
pack

Забери бонус

RePack

jed

!!Акция!!

Alien_Rage

RePack

fifa19

RePack

Assassins Creed: Odyssey

RePack

NEED FOR SPEED™ PAYBACK

4 сезон

9 сезон

Бесстыжие 9 сезон

Все сериалы

все сериалы на PB.wtf

RePack

FAR CRY 5
  

Мертвые души / Dead Souls (Колин Тейс / Colin Theys) [ 2012 , США , ужасы , HDRip ] DVO [den904, DeadSno] pb.wtf

Мертвые души через торрент pb.wtf

Размер: 1.37 GB | Добавлен: 7 лет 4 мес. назад | Торрент скачан:885 раз
Скачать  

19-07-2013 19:35 Мертвые души Скачать торрент  

Мертвые души / Dead SoulsГод выпуска: 2012
Страна: США
Жанр: ужасы
Продолжительность: 01:32:16
Перевод: Любительский (двухголосый)[den904, DeadSno], перевод [Janetta], работа со звуком [Колобок]
Режиссер: Колин Тейс / Colin Theys
В ролях: Джесси Джеймс (Johnny Petrie), Магда Апанович (Emma), Билл Моусли (Sheriff Depford), Джеральдин Хьюз (Mary Petrie), Ной Флайсс (Mack), Джейден Кейн (Andrew Judson), Дж.Х. Торранс Даунс (Benjamin Conroy), Элизабет Ирен (Faith Conroy), Kyle Donnery (Daniel Conroy), Бриджет Меган Кларк (Elizabeth Conroy), Кевин Ши (Sherif Davies), Jeff Ronan (Young Sheriff Depford)
Описание: В свой 18-й день рождения Джонни Петри узнает, что унаследовал в штате Мэн ферму, заброшенную на эти 18 лет, с момента страшной гибели его семьи от рук его же отца, местного пастора. Стремясь к переменам, Джонни переезжает, чтобы начать новую жизнь в своем новом жилище. Однако, начав копаться в прошлом, он неожиданно раскрывает ужасные подробности сомнительного учения своего отца. Помимо этого пугающего открытия, он осознает и то, что его опрометчивое возвращение оживило древнее зло, притаившееся в ловушке дома, запустив тем самым зловещий ритуал, унесший жизни членов его семьи.
Рейтинг
imdb.com: 5.70 (104)
Качество: HDRip
Формат: AVI
Видео кодек: XviD
Аудио кодек: AC3
Видео: XviD, 720x400 (16:9), 1662 kbps, 23,976 fps, 0,241 bpp
Аудио: AC3 / 5.1 / 48 kHz / 448 kbps / 16 bit
General
Complete name : D:ТорентыDead.Souls.2012.L2.HDRip.1400Mb.avi
Format : AVI
Format/Info : Audio Video Interleave
File size : 1.37 GiB
Duration : 1h 32mn
Overall bit rate : 2 120 Kbps
Writing application : VirtualDubMod 1.5.10.2 (build 2540/release)
Writing library : VirtualDubMod build 2540/release

Video
ID : 0
Format : MPEG-4 Visual
Format profile : Advanced Simple@L5
Format settings, BVOP : 2
Format settings, QPel : No
Format settings, GMC : No warppoints
Format settings, Matrix : Custom
Codec ID : XVID
Codec ID/Hint : XviD
Duration : 1h 32mn
Bit rate : 1 663 Kbps
Width : 720 pixels
Height : 400 pixels
Display aspect ratio : 16:9
Frame rate : 23.976 fps
Color space : YUV
Chroma subsampling : 4:2:0
Bit depth : 8 bits
Scan type : Progressive
Compression mode : Lossy
Bits/(Pixel*Frame) : 0.241
Stream size : 1.07 GiB (78%)
Writing library : XviD 1.2.1 (UTC 2008-12-04)

Audio
ID : 1
Format : AC-3
Format/Info : Audio Coding 3
Mode extension : CM (complete main)
Codec ID : 2000
Duration : 1h 32mn
Bit rate mode : Constant
Bit rate : 448 Kbps
Channel(s) : 6 channels
Channel positions : Front: L C R, Side: L R, LFE
Sampling rate : 48.0 KHz
Bit depth : 16 bits
Compression mode : Lossy
Stream size : 296 MiB (21%)
Alignment : Split accross interleaves
Interleave, duration : 42 ms (1.00 video frame)
Interleave, preload duration : 500 ms
pb.wtf



Скачать Мертвые души через торрент http://i6.imageban.ru/out/2013/07/19/202a72c3d092c6862bf4597985059785.jpg Скачать фильм Мертвые души через торрент бесплантно в хорошем качестве Описание: В свой 18-й день рождения Джонни Петри узнает, что унаследовал в штате Мэн ферму, заброшенную на эти 18 лет, с момента страшной ... 9.7 10 16
Info! Золотая раздача, скачанное не засчитывается.
Торрент: Зарегистрирован [2013-07-19 19:44] · скачан: 885 раз
Статус: √ проверено
Размер: 1.37 GB
Как cкачать? Как скачать Мертвые души через торрент | qTorrent

% Раздел Тема Автор DL S | L
Фильмы 2012 [ 1.37 GB ] Мертвые души / Dead Souls [2012 HDRip двухголосый] coc900 Скачать
1 | 0


Последний раз редактировалось: Ворон (2013-07-19 19:44), всего редактировалось 1 раз

28-11-2019 20:33  

Отключить всю рекламу на сайте

19-07-2013 19:53 Мертвые души Скачать торрент  

Спасибо что исправилиpb.wtf



19-07-2013 19:58 Мертвые души Скачать торрент  

mudrakmisha
Спасибо за бдительность.pb.wtf



20-07-2013 02:02 Мертвые души Скачать торрент  

Кто нибудь уже смотрел? Как фильм?pb.wtf



20-07-2013 05:48 Мертвые души Скачать торрент  

Думаю, должен быть неплохой.pb.wtf



20-07-2013 06:21 Мертвые души Скачать торрент  

И парень решил продавать в рабство умерших людей...
Да, все мы читали Гоголя)pb.wtf



20-07-2013 06:37 Мертвые души Скачать торрент  

как фельмец? :sensored:pb.wtf



23-07-2013 15:23 Мертвые души Скачать торрент  

ерунда, не стоит потраченного времениpb.wtf



23-07-2013 19:59 Мертвые души Скачать торрент  

На разок пойдет, есть несколько стремных моментов.pb.wtf



01-08-2013 05:07 Мертвые души Скачать торрент  

Прочитав описание вы пробудили страшное ЗЛО pb.wtf



    Дорогой пользователь! Огромная просьба, поблагодарите релизера, оцените раздачу и оставьте свои комментарий, если Вы скачали Мертвые души через торрент бесплатно! Внесите свою лепту в развитие PiratBit!
    Комментировать посты могут только пользователи прошедшие не сложную регистрацию
    Показать сообщения:    

    Мертвые души через торрент
    Скачать бесплатно Мертвые души
    Мертвые души скачать торрент
    Мертвые души смотреть онлайн
    Cкачать фильм Мертвые души бесплатно
    Мертвые души скачать торрент в хорошем качестве
    Мертвые души смотреть онлайн бесплатно в хорошем качестве


    Вы не можете начинать темы
    Вы не можете отвечать на сообщения
    Вы не можете редактировать свои сообщения
    Вы не можете удалять свои сообщения
    Вы не можете голосовать в опросах
    Вы не можете прикреплять файлы к сообщениям
    Вы можете скачивать файлы